Жалобы на работу трекера ! прошу сюда :)

Лига Справедливости: Трон Атлантиды / Justice League: Throne of Atlantis [2015 г., Этан Сполдинг] [720р] MVO [GREEN TEA, ZM-SHOW, Viruse Project]

Ответить на тему
 
Автор Сообщение

Nas ®

Стаж: 3 года 10 месяцев

Сообщений: 372

Пост 28-Янв-2015 13:30

[Цитировать]

Лига Справедливости: Трон Атлантиды
Justice League: Throne of Atlantis
- Страна: США 2015г
Жанр: мультипликация, экшн
Продолжительность: 1ч12м
-
Многоголосый закадровый: Кирилл Лавров, Александр Харченко, Константин Романов, Пётр Слепцов, Макс Коллапс, Владимир Полупанов, Александр Жуков, Франк Цветков, Ольга Гринтиева
-
Режиссер: Этан Сполдинг
Описание:
В водах Атлантики военная подводная лодка, приняв сигнал SOS, отправляется на помощь неизвестному судну, после чего подвергается нападению. Ее атаковали по приказу Орма, сына королевы океанов Атланны, уставшего от жителей поверхности Земли, по вине которых погиб его отец. Несмотря на нежелание матери раскрывать тайну существования подводного мира, он объявляет войну тем, кто уничтожает его расу, загрязняя воды океана. Пока королева пытается отыскать своего второго сына Артура, которому она хочет передать власть, Киборг собирает членов Лиги справедливости, чтобы расследовать дело о нападении на подводную лодку. В это время Артур, ничего не знающий о своем истинном происхождении, переживает смерть отца. Совсем скоро ему предстоит не только узнать всю правду об Атлантиде и своей настоящей семье, но и сделать самый важный выбор в своей жизни...
Смотрите онлайн фильм «Лига Справедливости: Трон Атлантиды» в хорошем HD качестве на нашем сайте, бесплатно и без регистрации.
-
Доп. информация:
Перевод на русский: Dakota Family Translators
Релиз подготовлен: GREEN TEA, ZM-SHOW, Viruse Project
Оформление постера: Константин Романов
Работа со звуком: Ольга Гринтиева и Кирил Лавров
-Формат: mp4
Видео кодек: V_MPEG4
Аудио кодек: AC-3
Видео: 1280/720 pixels, 23.976 fps, 16:9, 1 262 Kbps
Аудио: 192 Kbps, 2 channels, 48.0 KHz

MediaInfo

Format : Matroska
Format version : Version 1
File size : 766 MiB
Duration : 1h 12mn
Overall bit rate : 1 483 Kbps
Encoded date : UTC 2015-01-28 12:03:23
Writing application : mkvmerge v2.4.0 ('Fumbling Towards Ecstasy') built on Oct 11 2008 20:13:15
Writing library : libebml v0.7.7 + libmatroska v0.8.1
Video
ID : 1
Format : AVC
Format/Info : Advanced Video Codec
Format profile : High@L4.2
Format settings, CABAC : Yes
Format settings, ReFrames : 5 frames
Codec ID : V_MPEG4/ISO/AVC
Duration : 1h 12mn
Bit rate : 1 262 Kbps
Width : 1 280 pixels
Height : 720 pixels
Display aspect ratio : 16:9
Original display aspect ratio : 16:9
Frame rate mode : Constant
Frame rate : 23.976 fps
Color space : YUV
Chroma subsampling : 4:2:0
Bit depth : 8 bits
Scan type : Progressive
Bits/(Pixel*Frame) : 0.057
Stream size : 651 MiB (85%)
Writing library : x264 core 144 r2525 40bb568
Encoding settings : cabac=1 / ref=5 / deblock=1:0:0 / analyse=0x3:0x113 / me=umh / subme=8 / psy=1 / psy_rd=1.00:0.00 / mixed_ref=1 / me_range=16 / chroma_me=1 / trellis=1 / 8x8dct=1 / cqm=0 / deadzone=21,11 / fast_pskip=1 / chroma_qp_offset=-2 / threads=6 / lookahead_threads=1 / sliced_threads=0 / nr=0 / decimate=1 / interlaced=0 / bluray_compat=0 / constrained_intra=0 / bframes=3 / b_pyramid=2 / b_adapt=2 / b_bias=0 / direct=3 / weightb=1 / open_gop=0 / weightp=2 / keyint=240 / keyint_min=23 / scenecut=40 / intra_refresh=0 / rc_lookahead=50 / rc=crf / mbtree=1 / crf=20.0 / qcomp=0.60 / qpmin=0 / qpmax=69 / qpstep=4 / vbv_maxrate=31250 / vbv_bufsize=31250 / crf_max=0.0 / nal_hrd=none / filler=0 / ip_ratio=1.40 / aq=1:1.00
Default : Yes
Forced : No
Matrix coefficients : BT.709
Audio
ID : 2
Format : AC-3
Format/Info : Audio Coding 3
Mode extension : CM (complete main)
Format settings, Endianness : Big
Codec ID : A_AC3
Duration : 1h 12mn
Bit rate mode : Constant
Bit rate : 192 Kbps
Channel count : 2 channels
Channel positions : Front: L R
Sampling rate : 48.0 KHz
Bit depth : 16 bits
Compression mode : Lossy
Stream size : 99.1 MiB (13%)
Default : Yes
Forced : No

Скриншоты

[Профиль] [ЛС]
Показать сообщения:    
Ответить на тему

Текущее время: Сегодня 02:28

Часовой пояс: GMT



Вы не можете начинать темы
Вы не можете отвечать на сообщения
Вы не можете редактировать свои сообщения
Вы не можете удалять свои сообщения
Вы не можете голосовать в опросах
Вы не можете прикреплять файлы к сообщениям
Вы не можете скачивать файлы