Жалобы на работу трекера ! прошу сюда :)

Успех / Smash (Майкл Майер) [2012 г., мюзикл, HDTVRip] [RAW] [360p] DVO GREEN TEA

Ответить на тему
 
Автор Сообщение

Амальфи ®

Стаж: 3 года 10 месяцев

Сообщений: 264

Пост 22-Янв-2013 12:21

[Цитировать]

Успех / Smash Год выпуска: 2012
Страна: США
Жанр: Мюзикл
Продолжительность: 15/15-Перевод: Двухголосый (закадровый) 1-11 серии: pandora2177, Артём Набатов
с 12 серии: pandora2177, loster01-Режиссер: Майкл Майер
В ролях: Дебра Мессинг, Джек Девенпорт, Кристиан Борл, Меган Хилти, Кэтрин МакФи, Раза Джеффри, Брайан Д’Арси Джеймс, Джейми Кэперо, Анжелика Хьюстон, Уилл Чейз-Описание:
Музыкальная драма, которая раскрывает жизнь Бродвейских театров с разных сторон. Здесь пересекаются мечтатели и махинаторы, движимые одной целью — успехом мюзикла на Бродвее.-Доп. информация:
1-11 серии - Релиз-группа "GREEN TEA"
С 12 серии - GREEN TEA & AniPower
Озвучено по субтитрам: notabenoid
Работа со звуком: с 1-13 серии pandora2177, 7 серия Fi.Re., далее pandora2177-Качество: HDTVRip
Формат: AVI
Видео кодек: XviD
Аудио кодек: MP3
Видео: 624x352, 989 Кбит/с, 23.976 fps
Аудио: 48 kHz, 192 Кбит/с, 2 канала

MediaInfo

Format : AVI
Format/Info : Audio Video Interleave
File size : 369 MiB
Duration : 43mn 16s
Overall bit rate : 1 191 Kbps
Writing application : VirtualDubMod 1.5.10.2 (build 2540/release)
Writing library : VirtualDubMod build 2540/release
Video
ID : 0
Format : MPEG-4 Visual
Format profile : Advanced Simple@L5
Format settings, BVOP : 2
Format settings, QPel : No
Format settings, GMC : No warppoints
Format settings, Matrix : Default (H.263)
Muxing mode : Packed bitstream
Codec ID : XVID
Codec ID/Hint : XviD
Duration : 43mn 16s
Bit rate : 989 Kbps
Width : 624 pixels
Height : 352 pixels
Display aspect ratio : 16:9
Frame rate : 23.976 fps
Color space : YUV
Chroma subsampling : 4:2:0
Bit depth : 8 bits
Scan type : Progressive
Compression mode : Lossy
Bits/(Pixel*Frame) : 0.188
Stream size : 306 MiB (83%)
Writing library : XviD 64
Audio
ID : 1
Format : MPEG Audio
Format version : Version 1
Format profile : Layer 3
Mode : Joint stereo
Mode extension : MS Stereo
Codec ID : 55
Codec ID/Hint : MP3
Duration : 43mn 16s
Bit rate mode : Constant
Bit rate : 192 Kbps
Channel(s) : 2 channels
Sampling rate : 48.0 KHz
Compression mode : Lossy
Stream size : 59.4 MiB (16%)
Alignment : Aligned on interleaves
Interleave, duration : 42 ms (1.00 video frame)
Interleave, preload duration : 504 ms
Writing library : LAME3.98r
Encoding settings : -m j -V 4 -q 0 -lowpass 18.6 -b 192

Скриншоты

[Профиль] [ЛС]

Lisas

Стаж: 2 года 11 месяцев

Сообщений: 6

Пост 09-Дек-2013 14:47 (спустя 10 месяцев 18 дней)

[Цитировать]

Классный сериал, жаль, что его закрыли(((
[Профиль] [ЛС]

rambess1984

Стаж: 3 года

Сообщений: 1

Пост 03-Мар-2014 12:02 (спустя 2 месяца 24 дня)

[Цитировать]

а где серии с 12 и далее
[Профиль] [ЛС]

InDEeC

Стаж: 2 года 2 месяца

Сообщений: 39

Откуда: Москва

Пост 30-Сен-2014 19:13 (спустя 6 месяцев 27 дней)

[Цитировать]

Встаньте на раздачу...плз
[Профиль] [ЛС]
Показать сообщения:    
Ответить на тему

Текущее время: Сегодня 18:33

Часовой пояс: GMT



Вы не можете начинать темы
Вы не можете отвечать на сообщения
Вы не можете редактировать свои сообщения
Вы не можете удалять свои сообщения
Вы не можете голосовать в опросах
Вы не можете прикреплять файлы к сообщениям
Вы не можете скачивать файлы