Жалобы на работу трекера ! прошу сюда :)

Час / The Hour / Сезон: 2 / [6/6] (Джэми Пэйн, Гарри Брэдбир, Коки Гидройк, Сандра Голдбахер, Катрин Морсхэд, Джэми Пэйн) [2012 г., драма, HDTVRip] DVO GREEN TEA & Jimmy J.

Ответить на тему
 
Автор Сообщение

pandora2177 ®

Стаж: 3 года 10 месяцев

Сообщений: 368

Пост 21-Янв-2013 08:30

[Цитировать]

Час / The Hour Год выпуска: 2012
Страна: Великобритания
Жанр: Драма
Продолжительность: 00:57:38-Перевод: Двухголосый (закадровый) pandora2177 & Jimmy J.
Сэмпл: http://multi-up.com/809373-Русские субтитры: нет
Режиссёр: Джэми Пэйн, Гарри Брэдбир, Коки Гидройк, Сандра Голдбахер, Катрин Морсхэд, Джэми Пэйн
В ролях: Бен Уишоу, Анна Чэнселлор, Джулиан Райнд-Татт, Уна Чаплин, Лиза Гринвуд, Ромола Гарай, Доминик Уэст-Описание: Сериал "Час" (2 сезон) возвращает нас в 1957 год, где мы знакомимся с новыми персонажами, которых играют Питер Капальди, Ханна Тойнтон и Том Берк.
Шесть новых эпизодов расскажут нам о команде, которая по-своему будет бороться с призраком надвигающейся холодной войны.
Сериал о политических интригах и коррупции, где всё происходит на фоне быстрых и невероятных изменений в обществе, космической гонки и развития ядерной энергетики. Великобритания - на пороге новой эпохи модернизации, экономического оптимизма, научно-технического прогресса и культурных изменений, в условиях новой иммиграции из стран Содружества.-Доп. информация:
Совместный релиз GREEN TEA и Jimmy J.
Перевод:
Эльза Нордж (GREEN TEA) и Агата Клинцова (ZM-SHOW)
- 1 серия
Со 2 по 6 серии Агата Клинцова (ZM-SHOW) за что ей отдельная благодарность!
Рип: Bermud-Ссылка на предыдущие и альтернативные раздачи: http://rutracker.org/forum/tracker.php?f=189,2366&nm=The+Hour+-golden
Качество: HDTVRip
Формат: AVI
Видео кодек: XviD
Аудио кодек: MP3
Видео: 720х400, 1585 Кбит/с, 25 fps
Аудио: 48 kHz, 192 Кбит/с, 2 канала

MediaInfo

Формат : AVI
Формат/Информация : Audio Video Interleave
Размер файла : 751 Мбайт
Продолжительность : 58 м.
Общий поток : 1787 Кбит/сек
Программа кодирования : VirtualDubMod 1.5.10.2 (build 2540/release)
Библиотека кодирования : VirtualDubMod build 2540/release
Видео
Идентификатор : 0
Формат : MPEG-4 Visual
Профиль формата : Advanced Simple@L5
Параметр BVOP формата : 1
Параметр QPel формата : Нет
Параметр GMC формата : Без точки перехода
Параметр матрицы формата : Выборочная
Идентификатор кодека : XVID
Идентификатор кодека/Подсказка : XviD
Продолжительность : 58 м.
Битрейт : 1585 Кбит/сек
Ширина : 720 пикселей
Высота : 400 пикселей
Соотношение сторон : 16:9
Частота кадров : 25,000 кадров/сек
Цветовое пространство : YUV
Субдискретизация насыщенности : 4:2:0
Битовая глубина : 8 бит
Тип развёртки : Прогрессивная
Метод сжатия : С потерями
Бит/(Пиксели*Кадры) : 0.220
Размер потока : 666 Мбайт (89%)
Библиотека кодирования : XviD 72
Аудио
Идентификатор : 1
Формат : MPEG Audio
Версия формата : Version 1
Профиль формата : Layer 3
Режим : Joint stereo
Идентификатор кодека : 55
Идентификатор кодека/Подсказка : MP3
Продолжительность : 58 м.
Вид битрейта : Постоянный
Битрейт : 192 Кбит/сек
Каналы : 2 канала
Частота : 48,0 КГц
Метод сжатия : С потерями
Размер потока : 80,7 Мбайт (11%)
Выравнивание : Соединение по промежуткам
Продолжительность промежутка : 40 мс. (1,00 видеокадр)
Время предзагрузки промежутка : 504 мс.

Скриншоты

Внимание! Раздача ведётся путём добавления новых серий

Внимание! Раздача ведётся путём добавления новых серий; при каждом добавлении создаётся новый торрент. Чтобы начать докачку новой серии, пользователям необходимо сделать следующее:
(1) остановить скачивание,
(2) удалить старый торрент у себя из клиента (старые серии удалять не надо),
(3) скачать новый торрент и запустить его у себя в клиенте вместо старого, при этом указать клиенту путь в старую папку куда и должно происходить скачивание новых серий.
Ваш клиент при этом должен произвести хеширование (проверку) старой папки (если не производит сам - помогите ему сделать это), и будет докачивать только те серии которых у вас ещё нет. Старые серии при этом не удаляются, а продолжают раздаваться!
Eсли вы уже удалили старые серии, то предотвратить повторную закачку старых серий можно, отжав галочку в соответствующих местах при запуске нового торрента. По возможности, желательно не удалять старые серии как можно дольше чтобы релизёр не столько продолжал раздавать старые серии, а смог сконцентрироваться на новых.


Последний раз редактировалось: pandora2177 (2013-10-14 05:04), всего редактировалось 2 раз(а)
[Профиль] [ЛС]

kuz.str

Стаж: 2 года 3 месяца

Сообщений: 1

Пост 11-Авг-2014 12:38 (спустя 1 год 6 месяцев)

[Цитировать]

СПАСИБО! за раздачу.
[Профиль] [ЛС]

InDEeC

Стаж: 2 года 2 месяца

Сообщений: 39

Откуда: Москва

Пост 30-Сен-2014 19:12 (спустя 1 месяц 19 дней)

[Цитировать]

Встаньте на раздачу кто-нибудь..потом сидом буду...
[Профиль] [ЛС]
Показать сообщения:    
Ответить на тему

Текущее время: Сегодня 02:25

Часовой пояс: GMT



Вы не можете начинать темы
Вы не можете отвечать на сообщения
Вы не можете редактировать свои сообщения
Вы не можете удалять свои сообщения
Вы не можете голосовать в опросах
Вы не можете прикреплять файлы к сообщениям
Вы не можете скачивать файлы