Жалобы на работу трекера ! прошу сюда :)

Хилер / Healer [20/20] (Lee Jung Sub) [2014 г., Мелодрама, романтика, комедия, детектив, триллер, TVRip] [360p] DVO GREEN TEA

Страницы :  1, 2, 3, 4  След.

Ответить на тему
 
Автор Сообщение

dusy78 ®

Стаж: 3 года 10 месяцев

Сообщений: 1005

Откуда: Россия

Пост 26-Дек-2014 17:45

[Цитировать]

Хилер / Healer
Год выпуска: 2014
Страна: Южная Корея
Жанр: Мелодрама, романтика, комедия, детектив, триллер
Продолжительность: 20/20
Озвучивание: Марина Кириченко и Ярослав Мельник
СЕМПЛ: https://yadi.sk/i/d6YDbe7ade5Wf
Режиссер: Lee Jung Sub
В ролях:
Ю Чжи Тхэ - Ким Мун Хо
Чжи Чан Ук - Со Чжон Ху
Пак Мин Ён - Чхэ Ён Шин
Описание: Ким Мун Хо (Ю Джи Тхэ) (37 лет) - звезда среди репортеров и объект зависти среди журналистов. Брат владельца огромной медиа-компании. Из-за событий, произошедших в детстве, чувствует вину перед Чхэ Ён Шин. Чтобы искупить свои грехи, он пытается помочь Ён Шин превратиться в известного репортера. Но в какой-то момент времени повзрослевшая Ён Шин начинает затрагивать его сердце и убеждения.
Чхэ Ён Шин (Пак Мин Ён) (27 лет) - волевая и странная интернет-репортер в "Someday News". Ее мечта - стать легендарным репортером как Ориана Фаллачи. Жизнь Ён Шин становится утомительной из-за репортера-новобранца Со Чон Ху, который преследует ее как сталкер, и Ким Мун Хо, который предлагает помощь в осуществлении ее мечты.
Со Чон Ху (Чжи Чан Ук) (28 лет), кодовое имя Хилер, оснащен всевозможными умными гаджетами. С чувствами и боевыми навыками как у зверя он - лучший агент, который может выполнить любые задачи. Его конечная цель - накопить денег, чтобы купить необитаемый остров в южной части Тихого океана и жить там в одиночестве. Но когда он встречает Ён Шин, его жизнь начинает меняться. Он начинает проявлять интерес к миру, он думал, что не может испытывать то чувство, которое люди называют любовь. Но скрытая правда о прошлом раскрывается и эта любовь начинает становиться опасной.
Доп. информация:
Релиз группы: GREEN TEA
Перевод: релиз-группа Мания
Оформление постера: Дина Фаткуллина
Качество: TVRip
Формат: AVI
Видео кодек: XviD
Аудио кодек: MP3
Видео: 640х360, ~1400 Kbps, 29.970 fps
Аудио: 192 Kbps, 48 kHz, 2 ch
!!! Альтернативная раздача 1920х1080
!!! Альтернативная раздача 1280х720
ОСТ к дораме Хилер

Скриншоты

MediaInfo

Format : AVI
Format/Info : Audio Video Interleave
File size : 678 MiB
Duration : 59mn 9s
Overall bit rate : 1 603 Kbps
Writing application : VirtualDubMod 1.5.10.2 (build 2542/release)
Writing library : VirtualDubMod build 2542/release
Video
ID : 0
Format : MPEG-4 Visual
Format profile : Advanced Simple@L5
Format settings, BVOP : 2
Format settings, QPel : No
Format settings, GMC : No warppoints
Format settings, Matrix : Default (MPEG)
Codec ID : XVID
Codec ID/Hint : XviD
Duration : 59mn 9s
Bit rate : 1 399 Kbps
Width : 640 pixels
Height : 360 pixels
Display aspect ratio : 16:9
Frame rate : 29.970 fps
Color space : YUV
Chroma subsampling : 4:2:0
Bit depth : 8 bits
Scan type : Progressive
Compression mode : Lossy
Bits/(Pixel*Frame) : 0.203
Stream size : 592 MiB (87%)
Writing library : XviD 1.2.1 (UTC 2008-12-04)
Audio
ID : 1
Format : MPEG Audio
Format version : Version 1
Format profile : Layer 3
Mode : Joint stereo
Codec ID : 55
Codec ID/Hint : MP3
Duration : 59mn 9s
Bit rate mode : Constant
Bit rate : 192 Kbps
Channel(s) : 2 channels
Sampling rate : 48.0 KHz
Compression mode : Lossy
Stream size : 81.2 MiB (12%)
Alignment : Aligned on interleaves
Interleave, duration : 33 ms (1.00 video frame)
Interleave, preload duration : 504 ms
Добавлена 20 серия!


Последний раз редактировалось: dusy78 (2015-03-30 14:55), всего редактировалось 15 раз(а)
[Профиль] [ЛС]

j_777

Стаж: 3 года 9 месяцев

Сообщений: 302

Пост 27-Дек-2014 06:00 (спустя 12 часов)

[Цитировать]

Легкой озвучки вам! И огромное спасибо за маленький размер!
[Профиль] [ЛС]

Ланочка10_83

Стаж: 3 года 1 месяц

Сообщений: 131

Пост 30-Дек-2014 03:46 (спустя 2 дня 21 час)

[Цитировать]

Спасибо Вам! :)
[Профиль] [ЛС]

dusy78 ®

Стаж: 3 года 10 месяцев

Сообщений: 1005

Откуда: Россия

Пост 02-Янв-2015 09:42 (спустя 3 дня)

[Цитировать]

Добавлена 2 серия!
[Профиль] [ЛС]

dusy78 ®

Стаж: 3 года 10 месяцев

Сообщений: 1005

Откуда: Россия

Пост 11-Янв-2015 13:30 (спустя 9 дней)

[Цитировать]

Добавлена 3 серия!
[Профиль] [ЛС]

Ланочка10_83

Стаж: 3 года 1 месяц

Сообщений: 131

Пост 21-Янв-2015 03:19 (спустя 9 дней)

[Цитировать]

ax ab
[Профиль] [ЛС]

Nas

Стаж: 3 года 10 месяцев

Сообщений: 372

Пост 21-Янв-2015 13:57 (спустя 10 часов)

[Цитировать]

Добавлены 4-5 серии!
[Профиль] [ЛС]

petr.rty

Стаж: 2 года

Сообщений: 9

Пост 21-Янв-2015 20:07 (спустя 6 часов)

[Цитировать]

bp bp bp bp bp спасибо bv bv
[Профиль] [ЛС]

dusy78 ®

Стаж: 3 года 10 месяцев

Сообщений: 1005

Откуда: Россия

Пост 29-Янв-2015 13:56 (спустя 7 дней)

[Цитировать]

Добавлена 6 серия!
[Профиль] [ЛС]

dusy78 ®

Стаж: 3 года 10 месяцев

Сообщений: 1005

Откуда: Россия

Пост 30-Янв-2015 18:47 (спустя 1 день 4 часа)

[Цитировать]

Добавлена 7 серия!
[Профиль] [ЛС]

j_777

Стаж: 3 года 9 месяцев

Сообщений: 302

Пост 31-Янв-2015 08:02 (спустя 13 часов)

[Цитировать]

Спасибо! Очень интересная дорама! Озвучка просто восхитительная! Удачи в работе!
[Профиль] [ЛС]

dusy78 ®

Стаж: 3 года 10 месяцев

Сообщений: 1005

Откуда: Россия

Пост 02-Фев-2015 07:22 (спустя 1 день 23 часа)

[Цитировать]

Добавлены 8-9 серии!
[Профиль] [ЛС]

j_777

Стаж: 3 года 9 месяцев

Сообщений: 302

Пост 02-Фев-2015 11:57 (спустя 4 часа)

[Цитировать]

Спасибо за новые серии! легкой вам озвучки!
[Профиль] [ЛС]

dusy78 ®

Стаж: 3 года 10 месяцев

Сообщений: 1005

Откуда: Россия

Пост 12-Фев-2015 14:31 (спустя 10 дней)

[Цитировать]

Добавлена 10 серия!
[Профиль] [ЛС]

Ланочка10_83

Стаж: 3 года 1 месяц

Сообщений: 131

Пост 13-Фев-2015 03:17 (спустя 12 часов)

[Цитировать]

Спасибо :)
[Профиль] [ЛС]
Показать сообщения:    
Ответить на тему

Текущее время: Сегодня 22:19

Часовой пояс: GMT



Вы не можете начинать темы
Вы не можете отвечать на сообщения
Вы не можете редактировать свои сообщения
Вы не можете удалять свои сообщения
Вы не можете голосовать в опросах
Вы не можете прикреплять файлы к сообщениям
Вы не можете скачивать файлы