Жалобы на работу трекера ! прошу сюда :)

Городской охотник / Siti Hyunteo / City Hunter (Чжин Хёк /Jin Hyuk) [20/20] [2011 г., детектив, боевик, романтика, HDTVRip] DVO GREEN TEA [720]

Ответить на тему
 
Автор Сообщение

dusy78 ®

Стаж: 3 года 10 месяцев

Сообщений: 1005

Откуда: Россия

Пост 08-Янв-2015 14:24

[Цитировать]

Городской охотник / Siti Hyunteo / City Hunter
Год выпуска: 2011
Страна: Южная Корея
Жанр: детектив, боевик, романтика
Продолжительность: 20 серий по 60 мин
Озвучивание: mi24 и lama
Семпл: https://yadi.sk/i/-tos68Y2dqvxd
Режиссер: Чжин Хёк /Jin Hyuk
В ролях:
Ли Мин Хо в роли Ли Юн Сон
Пак Мин Ён в роли Ким На На
Ли Чжун Хёк в роли Ким Ён Чжо
Хван Сон Хи в роли Чжин Су Хи
Ку Ха Ра в роли Чхве Да Хе
Описание: Ли Юн Сон (Ли Мин Хо) работает в команде "Национальная комуникационная сеть", он имеет докторскую степень, которую получил в Массачусетском технологическом институте. Ким На На (Пак Мин Ён) - телохранитель резиденции президента, "Голубом доме". На На потеряла родителей в автокатастрофе и с тех пор жила на заработок от работ на неполный день. Когда она стала телохранителем в "Голубом Доме" и влюбилась в Ли Юн Сона, неожиданно оказалась вовлечена в любовный треугольник между Ли Юн Суном и прокурором Ли Чжун Хёком (Ким Ён Чжу)...
В основу сценария "Городского охотника" был взят всемирно известный роман японского писателя Цукаса Ходзё. И раз уж Корея первая решилась экранизировать эту историю, то к "Городскому охотнику" будет приковано всемирное внимание.
События переносятся из Токио 1980 года в Сеул 2011, и согласно оригинальной версии, герой становиться городским охотником, его характер закаляется в каждом из случаев, через которые он проходит.
Ост к дораме Городской охотник
!!! Альтернативная раздача 624x352
Доп. информация:
Озвучено по субтитрам фансаб-группы Мания
Релиз: группа GREEN TEA

Работа над звуком: 1-6 серии Bonifatso
с 7 серии: Spellhowler
Тайминг: Spellhowler

Качество: HDTVRip
Формат: AVI
Видео кодек: H.264
Аудио кодек: MP3
Видео: 1280х720, 29.970 fps, 3000 kbps
Аудио: MP3, 2 ch, 48.0 khz, 192 kbps

Скриншоты

MediaInfo

Format : AVI
Format/Info : Audio Video Interleave
File size : 1.43 GiB
Duration : 1h 4mn
Overall bit rate : 3 205 Kbps
Writing application : VirtualDubMod 1.5.10.2 (build 2542/release)
Writing library : VirtualDubMod build 2542/release
Video
ID : 0
Format : AVC
Format/Info : Advanced Video Codec
Format profile : High@L5.1
Format settings, CABAC : Yes
Format settings, ReFrames : 2 frames
Codec ID : H264
Duration : 1h 4mn
Bit rate : 3 000 Kbps
Width : 1 280 pixels
Height : 720 pixels
Display aspect ratio : 16:9
Frame rate : 29.970 fps
Color space : YUV
Chroma subsampling : 4:2:0
Bit depth : 8 bits
Scan type : Progressive
Bits/(Pixel*Frame) : 0.109
Stream size : 1.34 GiB (94%)
Writing library : x264 core 50 svn-569
Encoding settings : cabac=1 / ref=1 / deblock=1:0:0 / analyse=0x3:0x113 / me=hex / subme=5 / brdo=0 / mixed_ref=0 / me_range=16 / chroma_me=1 / trellis=1 / 8x8dct=1 / cqm=0 / chroma_qp_offset=0 / slices=1 / nr=0 / decimate=1 / bframes=2 / b_pyramid=0 / b_adapt=1 / b_bias=0 / direct=2 / wpredb=1 / bime=0 / keyint=250 / keyint_min=25 / scenecut=40 / rc=abr / bitrate=3000 / ratetol=1.0 / rceq='blurCplx^(1-qComp)' / qcomp=0.60 / qpmin=10 / qpmax=51 / qpstep=4 / ip_ratio=1.40 / pb_ratio=1.30
Audio
ID : 1
Format : MPEG Audio
Format version : Version 1
Format profile : Layer 3
Codec ID : 55
Codec ID/Hint : MP3
Duration : 1h 4mn
Bit rate mode : Constant
Bit rate : 192 Kbps
Channel(s) : 2 channels
Sampling rate : 44.1 KHz
Compression mode : Lossy
Stream size : 88.0 MiB (6%)
Alignment : Split accross interleaves
Interleave, duration : 33 ms (1.00 video frame)
Interleave, preload duration : 500 ms
[Профиль] [ЛС]

jondok

Стаж: 2 года 1 месяц

Сообщений: 714

Откуда: Россия

Пост 08-Янв-2015 16:04 (спустя 1 час 39 минут)

[Цитировать]

наконец то качество которое можно смотреть. Спасибо за рип.
[Профиль] [ЛС]

d1man

Стаж: 2 года 1 месяц

Сообщений: 1

Пост 07-Фев-2015 14:06 (спустя 29 дней)

[Цитировать]

Очень достойная дорамка! Спасибо за раздачу ;)
[Профиль] [ЛС]

Рио

Стаж: 2 года 1 месяц

Сообщений: 3

Пост 08-Июл-2015 10:46 (спустя 5 месяцев)

[Цитировать]

Что-то пошло не так,
пишет "Поиск источников...", но не начинает качать(
[Профиль] [ЛС]

Ayase Haruka

Стаж: 1 год

Сообщений: 2

Откуда: Praha, Czech Republic

Пост 11-Ноя-2015 15:48 (спустя 4 месяца 3 дня)

[Цитировать]

Эта дорама стоит того, что бы ее посмотреть. Отличная музыка, прекрасная игра актеров и сюжет, который довел до слез.

_________________
[Профиль] [ЛС]

nataly_seraya

Стаж: 1 год

Сообщений: 5

Пост 01-Дек-2015 09:56 (спустя 19 дней)

[Цитировать]

Дорама просто супер,сюжет очень захватывает!
[Профиль] [ЛС]

Linera

Стаж: 11 месяцев 19 дней

Сообщений: 1

Пост 22-Дек-2015 08:06 (спустя 20 дней)

[Цитировать]

дайте скорости пожалуйста
[Профиль] [ЛС]

Lexicuslex

Стаж: 1 год 3 месяца

Сообщений: 28

Пост 19-Апр-2016 14:11 (спустя 3 месяца 28 дней)

[Цитировать]

дайте скорости люди!!!!!!!!!!!!!!!!!!
[Профиль] [ЛС]
Показать сообщения:    
Ответить на тему

Текущее время: Сегодня 16:32

Часовой пояс: GMT



Вы не можете начинать темы
Вы не можете отвечать на сообщения
Вы не можете редактировать свои сообщения
Вы не можете удалять свои сообщения
Вы не можете голосовать в опросах
Вы не можете прикреплять файлы к сообщениям
Вы не можете скачивать файлы