Жалобы на работу трекера ! прошу сюда :)

Сердцем к сердцу / Heart to heart [16/16] [2015, (Lee Yoon-Jung (Ли Юн-Юнг)), Психология, комедия, романтика] [360] DVO GREEN TEA

Страницы :  1, 2  След.

Ответить на тему
 
Автор Сообщение

dusy78 ®

Стаж: 3 года 10 месяцев

Сообщений: 1005

Откуда: Россия

Пост 15-Янв-2015 14:32

[Цитировать]

Сердцем к сердцу / Heart to heart
Год выпуска: 2015
Страна: Южная Корея
Жанр: Психология, комедия, романтика
Продолжительность: 16/16
Озвучивание: Франк Цветков и Светлана Дмитриева
СЕМПЛ: https://yadi.sk/i/brzntuDzdzW5h
В ролях:
Choi Kang Hee as Cha Hong Do
Chun Jung Myung as Ko Yi Suk
Lee Jae Yoon as Jang Doo Soo
Ahn So Hee as Ko Se Ro
Описание: Ча Хон До страдает социопатией и при контакте с людьми начинает жутко краснеть. Но это не мешает ей быть очень любопытной. Женщина узнает об окружающем мире из книг и интернета. Однажды Хон До узнает, что умерла ее бабушка, которая была ее единственной связью с внешним миром. Необходимость как-то существовать вынуждает Хон До устроиться на работу прислугой. Вот только работать она начинает, притворяясь пожилой дамой. Вскоре совершенно случайно она встречает психиатра Ко И ****.
Перевод описания: doramatv
Доп. информация:
Релиз группы: GREEN TEA
Перевод:
1-3 серии Светлана Дмитриева
с 4 серии ФСГ Мания
Оформление постера: Дина Фаткуллина
Работа со звуком: Ольга Гринтиева
Качество: TVRip
Формат: AVI
Видео кодек: XviD
Аудио кодек: MP3
Видео: Видео: 1 400 Kbps, 640х360, 29.970 fps
Аудио: Аудио: 48 kHz, 192 Кбит/с, 2 ch
!!! Альтернативная раздача 1280х720
ОСТ к дораме Сердцем к сердцу

Скриншоты

MediaInfo

Format : AVI
Format/Info : Audio Video Interleave
File size : 674 MiB
Duration : 58mn 46s
Overall bit rate : 1 603 Kbps
Writing application : VirtualDubMod 1.5.10.2 (build 2542/release)
Writing library : VirtualDubMod build 2542/release
Video
ID : 0
Format : MPEG-4 Visual
Format profile : Advanced Simple@L5
Format settings, BVOP : 2
Format settings, QPel : No
Format settings, GMC : No warppoints
Format settings, Matrix : Default (MPEG)
Codec ID : XVID
Codec ID/Hint : XviD
Duration : 58mn 46s
Bit rate : 1 399 Kbps
Width : 640 pixels
Height : 360 pixels
Display aspect ratio : 16:9
Frame rate : 29.970 fps
Color space : YUV
Chroma subsampling : 4:2:0
Bit depth : 8 bits
Scan type : Progressive
Compression mode : Lossy
Bits/(Pixel*Frame) : 0.203
Stream size : 588 MiB (87%)
Writing library : XviD 1.2.1 (UTC 2008-12-04)
Audio
ID : 1
Format : MPEG Audio
Format version : Version 1
Format profile : Layer 3
Mode : Joint stereo
Codec ID : 55
Codec ID/Hint : MP3
Duration : 58mn 46s
Bit rate mode : Constant
Bit rate : 192 Kbps
Channel(s) : 2 channels
Sampling rate : 48.0 KHz
Compression mode : Lossy
Stream size : 80.7 MiB (12%)
Alignment : Aligned on interleaves
Interleave, duration : 33 ms (1.00 video frame)
Interleave, preload duration : 504 ms
Добавлены заключительные серии!


Последний раз редактировалось: dusy78 (2015-06-02 17:22), всего редактировалось 11 раз(а)
[Профиль] [ЛС]

Mia_Moore

Стаж: 1 год 10 месяцев

Сообщений: 2

Пост 20-Янв-2015 04:37 (спустя 4 дня)

[Цитировать]

спасибо большое!
[Профиль] [ЛС]

j_777

Стаж: 3 года 9 месяцев

Сообщений: 302

Пост 23-Янв-2015 13:59 (спустя 3 дня)

[Цитировать]

Спасибо, что взяли на озвучку эту дораму! очень надеялась! Удачи в работе!
[Профиль] [ЛС]

dusy78 ®

Стаж: 3 года 10 месяцев

Сообщений: 1005

Откуда: Россия

Пост 24-Янв-2015 07:46 (спустя 17 часов)

[Цитировать]

Добавлена 2 серия!
[Профиль] [ЛС]

dusy78 ®

Стаж: 3 года 10 месяцев

Сообщений: 1005

Откуда: Россия

Пост 27-Янв-2015 07:13 (спустя 2 дня 23 часа)

[Цитировать]

Добавлена 3 серия!
[Профиль] [ЛС]

j_777

Стаж: 3 года 9 месяцев

Сообщений: 302

Пост 27-Янв-2015 13:37 (спустя 6 часов)

[Цитировать]

Спасибо за новые серии!
[Профиль] [ЛС]

dusy78 ®

Стаж: 3 года 10 месяцев

Сообщений: 1005

Откуда: Россия

Пост 30-Янв-2015 16:32 (спустя 3 дня)

[Цитировать]

Добавлена 4 серия!
[Профиль] [ЛС]

May77

Стаж: 2 года 11 месяцев

Сообщений: 3

Пост 02-Фев-2015 19:52 (спустя 3 дня)

[Цитировать]

Сериал супер! В лучших традициях корейских дорам! Спасибо за профессиональную озвучку.
[Профиль] [ЛС]

dusy78 ®

Стаж: 3 года 10 месяцев

Сообщений: 1005

Откуда: Россия

Пост 12-Фев-2015 17:17 (спустя 9 дней)

[Цитировать]

Добавлена 5 серия!
[Профиль] [ЛС]

dusy78 ®

Стаж: 3 года 10 месяцев

Сообщений: 1005

Откуда: Россия

Пост 13-Фев-2015 16:22 (спустя 23 часа)

[Цитировать]

May77, согласна с вами! Сериал отличный! И мне вот интересно за которого их ГГ вы болеете - детектива или доктора?
Я вот с самого начала за доктора, очаровательный псих )))), но в последней серии детектив как то поколебал мои чувства. bn
[Профиль] [ЛС]

dusy78 ®

Стаж: 3 года 10 месяцев

Сообщений: 1005

Откуда: Россия

Пост 13-Фев-2015 18:18 (спустя 1 час 55 минут)

[Цитировать]

Добавлена 6 серия!
[Профиль] [ЛС]

Никира

Стаж: 2 года

Сообщений: 4

Пост 13-Фев-2015 19:00 (спустя 42 минуты)

[Цитировать]

Спасибо за очередную серию. Сериал очень нравится. Забавно, проблемы с психикой пациентки гораздо меньше, чем у ее доктора. Детектив пока единственный более менее здоровый человек, но симпатии на стороне психов.
[Профиль] [ЛС]

Barliss

Стаж: 2 года

Сообщений: 18

Пост 13-Фев-2015 20:23 (спустя 1 час 23 минуты)

[Цитировать]

Спасибо за 6 серию, седьмую бы ещё... она ж озвучена.
[Профиль] [ЛС]

elzanorge

Стаж: 3 года 10 месяцев

Сообщений: 22

Пост 15-Фев-2015 17:43 (спустя 1 день 21 час)

[Цитировать]

Я вот не знаю, за кого я! Ну честно)) Думала и думала. Пока серия закончится, я то за доктора, то за детектива. Очень сложно выбрать кого то одного. Доктор , ну просто выбешивает меня иногда. Аж задушить хочется. Этот момент с пожаром. Гад!!! Но всё равно , он мне нрава. А с другой стороны у нас детектив-классный весь такой, но естъ одно но! Я поняла его жена должна быть ещё и хорошей невесткой всего его семейства. А дева с таким диагнозом явно не потянет. И начнутся упрёки, разговоры, недовольства. А ей оно надо?! Она не такая наглая или богатая, чтобы противостоять всему этому...
[Профиль] [ЛС]

dusy78 ®

Стаж: 3 года 10 месяцев

Сообщений: 1005

Откуда: Россия

Пост 19-Фев-2015 14:19 (спустя 3 дня)

[Цитировать]

Добавлены 7-8 серии!
[Профиль] [ЛС]
Показать сообщения:    
Ответить на тему

Текущее время: Сегодня 20:06

Часовой пояс: GMT



Вы не можете начинать темы
Вы не можете отвечать на сообщения
Вы не можете редактировать свои сообщения
Вы не можете удалять свои сообщения
Вы не можете голосовать в опросах
Вы не можете прикреплять файлы к сообщениям
Вы не можете скачивать файлы