Жалобы на работу трекера ! прошу сюда :)

Сияй или сойди с ума / Shine or Go Crazy (Сон Хёк Сок) [24/24] [2015 г., История, романтика, фэнтэзи, TVRip] [360] VO GREEN TEA

Страницы :  1, 2, 3  След.

Ответить на тему
 
Автор Сообщение

dusy78 ®

Стаж: 3 года 10 месяцев

Сообщений: 1005

Откуда: Россия

Пост 23-Янв-2015 14:17

[Цитировать]

Сияй или сойди с ума / Shine or Go Crazy
Год выпуска: 2015
Страна: Южная Корея
Жанр: История, романтика, фэнтэзи
Продолжительность: 24/24
Озвучивание: Юлия Балиева
СЕМПЛ: https://yadi.sk/i/e5XvR2xoeBvxA
Режиссер: Сон Хёк Сок
В ролях:
Чан Хёк - Ван Со
О Ён Со - Син Юль
Им Чжу Хван - Ван Ок
Ли Док Хва - Ван Сик Рём
Рю Сын Сы - Чжон Чон
На Чжон Чхан - Сэ Вон
Описание: История о принце Ван Со из Корё и последней принцессе государства Пархэ - Син Юль.
Жизнь одарила их нелёгкой судьбой: принцу с детства говорят, что он проклят, а принцесса даже была на волоске от смерти. Однажды эти двое встречаются и постепенно начинают испытывать друг к другу чувства.
Перевод описания: Nemie
Доп. информация:
Перевод: фансаб группы Мания
Релиз группы:
Оформление постера: Елена Горборукова
Работа со звуком: Ольга Гринтиева
Качество: TVRip
Формат: AVI
Видео кодек: XviD
Аудио кодек: MP3
Видео: 640х360; 1 400 Kbps; 29.970 fps
Аудио: 192 Kbps; 2 ch; 48.0 KHz
ОСТ к дораме Сияй или сойди с ума
!!! Альтернативная раздача: 720p

Скриншоты

MediaInfo

Format : AVI
Format/Info : Audio Video Interleave
File size : 704 MiB
Duration : 1h 1mn
Overall bit rate : 1 604 Kbps
Writing application : VirtualDubMod 1.5.10.2 (build 2542/release)
Writing library : VirtualDubMod build 2542/release
Video
ID : 0
Format : MPEG-4 Visual
Format profile : Advanced Simple@L5
Format settings, BVOP : 2
Format settings, QPel : No
Format settings, GMC : No warppoints
Format settings, Matrix : Default (MPEG)
Codec ID : XVID
Codec ID/Hint : XviD
Duration : 1h 1mn
Bit rate : 1 401 Kbps
Width : 640 pixels
Height : 360 pixels
Display aspect ratio : 16:9
Frame rate : 29.970 fps
Color space : YUV
Chroma subsampling : 4:2:0
Bit depth : 8 bits
Scan type : Progressive
Compression mode : Lossy
Bits/(Pixel*Frame) : 0.203
Stream size : 614 MiB (87%)
Writing library : XviD 1.2.1 (UTC 2008-12-04)
Audio
ID : 1
Format : MPEG Audio
Format version : Version 1
Format profile : Layer 3
Mode : Joint stereo
Codec ID : 55
Codec ID/Hint : MP3
Duration : 1h 1mn
Bit rate mode : Constant
Bit rate : 192 Kbps
Channel(s) : 2 channels
Sampling rate : 48.0 KHz
Compression mode : Lossy
Stream size : 84.2 MiB (12%)
Alignment : Aligned on interleaves
Interleave, duration : 33 ms (1.00 video frame)
Interleave, preload duration : 504 ms
Добавлена 24 серия!


Последний раз редактировалось: dusy78 (2015-04-17 12:55), всего редактировалось 14 раз(а)
[Профиль] [ЛС]

dusy78 ®

Стаж: 3 года 10 месяцев

Сообщений: 1005

Откуда: Россия

Пост 30-Янв-2015 16:35 (спустя 7 дней)

[Цитировать]

Добавлена 2 серия!
[Профиль] [ЛС]

dusy78 ®

Стаж: 3 года 10 месяцев

Сообщений: 1005

Откуда: Россия

Пост 31-Янв-2015 17:49 (спустя 1 день 1 час)

[Цитировать]

Добавлена 3 серия!
[Профиль] [ЛС]

Tainted-love

Стаж: 2 года 11 месяцев

Сообщений: 1180

Пост 31-Янв-2015 23:17 (спустя 5 часов)

[Цитировать]

bw Кто смотрел... это интересно?
[Профиль] [ЛС]

dusy78 ®

Стаж: 3 года 10 месяцев

Сообщений: 1005

Откуда: Россия

Пост 11-Фев-2015 07:20 (спустя 10 дней)

[Цитировать]

Добавлены 4-5 серии!
[Профиль] [ЛС]

Лараллейн

Стаж: 3 года

Сообщений: 13

Пост 12-Фев-2015 03:42 (спустя 20 часов)

[Цитировать]

Интересно
[Профиль] [ЛС]

Maik40

Стаж: 3 года 1 месяц

Сообщений: 51

Пост 13-Фев-2015 01:18 (спустя 21 час)

[Цитировать]

good bv
[Профиль] [ЛС]

Tainted-love

Стаж: 2 года 11 месяцев

Сообщений: 1180

Пост 13-Фев-2015 07:31 (спустя 6 часов)

[Цитировать]

Странное название для исторического сериала. bn
[Профиль] [ЛС]

dusy78 ®

Стаж: 3 года 10 месяцев

Сообщений: 1005

Откуда: Россия

Пост 21-Фев-2015 05:48 (спустя 7 дней)

[Цитировать]

Добавлены 6-7 серии!
[Профиль] [ЛС]

Hitguy

Стаж: 3 года 1 месяц

Сообщений: 15

Пост 23-Фев-2015 13:03 (спустя 2 дня 7 часов)

[Цитировать]

Приятная сказка! Спасибо! Надеюсь на скорейшую озвучку!
[Профиль] [ЛС]

dusy78 ®

Стаж: 3 года 10 месяцев

Сообщений: 1005

Откуда: Россия

Пост 26-Фев-2015 15:33 (спустя 3 дня)

[Цитировать]

Добавлены 8-9 серии!
[Профиль] [ЛС]

dusy78 ®

Стаж: 3 года 10 месяцев

Сообщений: 1005

Откуда: Россия

Пост 02-Мар-2015 06:49 (спустя 3 дня)

[Цитировать]

Добавлена 10 серия!
[Профиль] [ЛС]

j_777

Стаж: 3 года 9 месяцев

Сообщений: 302

Пост 02-Мар-2015 11:52 (спустя 5 часов)

[Цитировать]

спасибо за новые серии
[Профиль] [ЛС]

dusy78 ®

Стаж: 3 года 10 месяцев

Сообщений: 1005

Откуда: Россия

Пост 04-Мар-2015 17:16 (спустя 2 дня 5 часов)

[Цитировать]

Добавлена 11 серия!
[Профиль] [ЛС]

dusy78 ®

Стаж: 3 года 10 месяцев

Сообщений: 1005

Откуда: Россия

Пост 09-Мар-2015 17:11 (спустя 4 дня)

[Цитировать]

Добавлена 12 серия!
[Профиль] [ЛС]
Показать сообщения:    
Ответить на тему

Текущее время: Сегодня 22:20

Часовой пояс: GMT



Вы не можете начинать темы
Вы не можете отвечать на сообщения
Вы не можете редактировать свои сообщения
Вы не можете удалять свои сообщения
Вы не можете голосовать в опросах
Вы не можете прикреплять файлы к сообщениям
Вы не можете скачивать файлы