Жалобы на работу трекера ! прошу сюда :)

Рыцарь Мечты / Мечта Рыцаря / Dream Knight [12/12] [2015 г., музыкальный, мини-дорама] [720р]

Страницы :  1, 2  След.

Ответить на тему
 
Автор Сообщение

Nas ®

Стаж: 3 года 10 месяцев

Сообщений: 372

Пост 02-Фев-2015 21:25

[Цитировать]

Рыцарь Мечты / Мечта Рыцаря / Dream Knight- Страна: Южная Корея 2015г
Жанр: музыкальный, мини-дорама
Продолжительность: 12/12
-
Перевод: Двухголосый закадровый Анастасия Романова и Михаил Чёрный
-
В ролях:
GOT7, Ли Мин Ён, Сон Ха Юн
Описание:
Дорама о школьном бойзбенде.
Ведущие роли исполнят участники GOT7 и Сон Ха Юн. Мин из miss A сыграет лучшую подругу главной героини.
-
Доп. информация:
Перевод: "фсг J&J | JYP & JUNIORS | FSG"
Релиз группы GREEN TEA
Рип: Елена Клепкина
Оформление постера: Дина Фаткуллина
Работа со звуком: Ольга Гринтиева
-Хардсаб на надписи
Формат: AVI
Видео кодек: H264
Аудио кодек: MP3
Видео: 1280/720 pixels, 24.000 fps, 16:9, 2 076 Kbps
Аудио: 192 Kbps, 2 channels, 48.0 KHz
ОСТ к дораме Рыцарь Мечты

MediaInfo

Format : AVI
Format/Info : Audio Video Interleave
File size : 198 MiB
Duration : 12mn 11s
Overall bit rate : 2 274 Kbps
Writing application : VirtualDubMod 1.5.10.3 | www.virtualdub-fr.org || (build 2550/release)
Writing library : VirtualDubMod build 2550/release
Video
ID : 0
Format : AVC
Format/Info : Advanced Video Codec
Format profile : High@L3.1
Format settings, CABAC : Yes
Format settings, ReFrames : 5 frames
Codec ID : h264
Duration : 12mn 11s
Bit rate : 2 076 Kbps
Width : 1 280 pixels
Height : 720 pixels
Display aspect ratio : 16:9
Frame rate : 24.000 fps
Color space : YUV
Chroma subsampling : 4:2:0
Bit depth : 8 bits
Scan type : Progressive
Bits/(Pixel*Frame) : 0.094
Stream size : 181 MiB (91%)
Writing library : x264 core 130 r2273 b3065e6
Encoding settings : cabac=1 / ref=5 / deblock=1:-1:-1 / analyse=0x3:0x133 / me=umh / subme=10 / psy=1 / psy_rd=1.00:0.00 / mixed_ref=0 / me_range=24 / chroma_me=1 / trellis=2 / 8x8dct=1 / cqm=0 / deadzone=21,11 / fast_pskip=0 / chroma_qp_offset=-2 / threads=6 / lookahead_threads=1 / sliced_threads=0 / nr=0 / decimate=1 / interlaced=0 / bluray_compat=0 / constrained_intra=0 / bframes=3 / b_pyramid=2 / b_adapt=1 / b_bias=0 / direct=3 / weightb=1 / open_gop=0 / weightp=2 / keyint=250 / keyint_min=23 / scenecut=40 / intra_refresh=0 / rc_lookahead=60 / rc=2pass / mbtree=1 / bitrate=2076 / ratetol=1.0 / qcomp=0.60 / qpmin=10 / qpmax=51 / qpstep=4 / cplxblur=20.0 / qblur=0.5 / ip_ratio=1.40 / aq=1:1.00
Audio
ID : 1
Format : MPEG Audio
Format version : Version 1
Format profile : Layer 3
Codec ID : 55
Codec ID/Hint : MP3
Duration : 12mn 11s
Bit rate mode : Constant
Bit rate : 192 Kbps
Channel(s) : 2 channels
Sampling rate : 48.0 KHz
Compression mode : Lossy
Stream size : 16.7 MiB (8%)
Alignment : Aligned on interleaves
Interleave, duration : 42 ms (1.00 video frame)
Interleave, preload duration : 504 ms
Writing library : LAME3.99r
Encoding settings : -m s -V 4 -q 0 -lowpass 18.6 -b 192

Скриншоты



Последний раз редактировалось: Nas (2015-03-10 17:21), всего редактировалось 3 раз(а)
[Профиль] [ЛС]

Tainted-love

Стаж: 2 года 11 месяцев

Сообщений: 1180

Пост 02-Фев-2015 22:10 (спустя 45 минут)

[Цитировать]

Спасибо за музыкальную дорамку... похоже в ней будет много красивых и поющих мальчиков... интересно... bp если Вы взялись за озвучку значит и сюжет неплохой... я сужу по Вашим предыдущим работам. Удачки!!! cb
[Профиль] [ЛС]

nuranura

Стаж: 3 года 1 месяц

Сообщений: 142

Пост 04-Фев-2015 11:04 (спустя 1 день 12 часов)

[Цитировать]

bp ОГРОМНЕЙШЕЕ СПАСИБО!!!!!! просто мечтала увидеть эту дораму в вашей озвучке!!!! bp bk
[Профиль] [ЛС]

emperatrica

Стаж: 3 года

Сообщений: 16

Пост 14-Фев-2015 13:33 (спустя 10 дней)

[Цитировать]

Огромнейшее Вам спасибо!!!!! Не ожидала, что так понравится дорама)))) С нетерпением жду продолжения))))))
[Профиль] [ЛС]

diva.ufa

Стаж: 3 года 2 месяца

Сообщений: 19

Пост 25-Фев-2015 16:01 (спустя 11 дней)

[Цитировать]

А в релизах уже 3серии...
[Профиль] [ЛС]

Nas ®

Стаж: 3 года 10 месяцев

Сообщений: 372

Пост 01-Мар-2015 20:09 (спустя 4 дня)

[Цитировать]

Добавлена 4 серия!
[Профиль] [ЛС]

Nas ®

Стаж: 3 года 10 месяцев

Сообщений: 372

Пост 03-Мар-2015 18:56 (спустя 1 день 22 часа)

[Цитировать]

Добавлены 5-9 серии!
[Профиль] [ЛС]

emperatrica

Стаж: 3 года

Сообщений: 16

Пост 04-Мар-2015 17:08 (спустя 22 часа)

[Цитировать]

Я Вас люблю!!!!!!! Огромнейшее Вам спасибо)))))
[Профиль] [ЛС]

AnaTyen

Стаж: 1 год 10 месяцев

Сообщений: 5

Пост 06-Мар-2015 12:36 (спустя 1 день 19 часов)

[Цитировать]

Странная дорама.Самое классное в ней-заставка.А остальное тухленько
[Профиль] [ЛС]

nuranura

Стаж: 3 года 1 месяц

Сообщений: 142

Пост 07-Мар-2015 12:39 (спустя 1 день)

[Цитировать]

с нетерпением ждем окончания дорамы! огромное спасибо за вашу озвучку!
[Профиль] [ЛС]

nuranura

Стаж: 3 года 1 месяц

Сообщений: 142

Пост 10-Мар-2015 05:33 (спустя 2 дня 16 часов)

[Цитировать]

обновите пожалуйста раздачу. И еще раз Спасибо! Спасибо! спасибо!
[Профиль] [ЛС]

Nas ®

Стаж: 3 года 10 месяцев

Сообщений: 372

Пост 10-Мар-2015 17:22 (спустя 11 часов)

[Цитировать]

Добавлены 10-12 серии!
[Профиль] [ЛС]

Ная

Стаж: 2 года 7 месяцев

Сообщений: 206

Откуда: Россия

Пост 15-Мар-2015 12:07 (спустя 4 дня)

[Цитировать]

Интересная идея, но скучная реализация.
Анастасия Романова и Михаил Чёрный, спасибо за отличную озвучку!
Спасибо всем кто работал на мини-сериалом!
[Профиль] [ЛС]

arshedji

Стаж: 1 год 4 месяца

Сообщений: 1

Пост 25-Сен-2015 11:56 (спустя 6 месяцев 9 дней)

[Цитировать]

Кумао за что работали над проектом!
[Профиль] [ЛС]

aizhan

Стаж: 11 месяцев 2 дня

Сообщений: 1

Пост 03-Янв-2016 21:30 (спустя 3 месяца 8 дней)

[Цитировать]

как скачают эти сериалы?
[Профиль] [ЛС]
Показать сообщения:    
Ответить на тему

Текущее время: Сегодня 16:00

Часовой пояс: GMT



Вы не можете начинать темы
Вы не можете отвечать на сообщения
Вы не можете редактировать свои сообщения
Вы не можете удалять свои сообщения
Вы не можете голосовать в опросах
Вы не можете прикреплять файлы к сообщениям
Вы не можете скачивать файлы