Жалобы на работу трекера ! прошу сюда :)

Любовь Хо Гу / Ho Goo's Love / Fool's Love [16/16] [Пё Мин Су] [2015 г., комедия, романтика, TVRip] [360] DVO GREEN TEA

Ответить на тему
 
Автор Сообщение

dusy78 ®

Стаж: 3 года 10 месяцев

Сообщений: 1005

Откуда: Россия

Пост 06-Мар-2015 14:42

[Цитировать]

Любовь Хо Гу
Ho Goo's Love / Fool's Love

Год выпуска: 2015
Страна: Южная Корея
Жанр: комедия, романтика
Продолжительность: 16/16
Озвучивание: Айя Сона и Ми24
СЕМПЛ: https://yadi.sk/i/EIu8v4gtf5opW
Режиссер: Пё Мин Су
В ролях:
Чхве У Шик,
Юи,
Им Соль Он,
Ли Со Гён,
Пак Су Чхон,
Чжон Вон Чжун,
Пак Чжи Иль,
О Ён Сил,
Чхве Док Мун,
Чхве Дже Хван
Сон Чжи Ин,
Хан Гын Соп,
Ли Сон Мин
Описание:
Кан Хо Гу никогда в жизни не встречался, но внезапно встречает снова свою первую любовь - До До Хи. До До Хи - звезда спорта и стремится к победе на соревнованиях, но у нее никак не получается выиграть золотую медаль, а также завести друзей. после случайной встречи с главным героем она решает немного расслабится и отправится с ним в поездку. что же из этого вышло? (с) Саша Иосифова
Доп. информация:
Перевод: фансаб группы Мания
Релиз группы: GREEN TEA
Тайминг и координация проекта: Геннадий Дахно
Оформление постера и работа со звуком: Ольга Гринтиева

Качество: TVRip
Формат: AVI
Видео кодек: XviD
Аудио кодек: MP3
Видео: 640х360; 1 400 Kbps; 29.970 fps
Аудио: 192 Kbps; 2 ch; 48.0 KHz
!!! Альтернативная раздача 1280х720
ОСТ к дораме Любовь Хо Гу

Скриншоты

MediaInfo

Format : AVI
Format/Info : Audio Video Interleave
File size : 722 MiB
Duration : 1h 2mn
Overall bit rate mode : Variable
Overall bit rate : 1 606 Kbps
Writing application : VirtualDubMod 1.5.10.3 | www.virtualdub-fr.org || (build 2550/release)
Writing library : VirtualDubMod build 2550/release
Video
ID : 0
Format : MPEG-4 Visual
Format profile : Advanced Simple@L5
Format settings, BVOP : 2
Format settings, QPel : No
Format settings, GMC : No warppoints
Format settings, Matrix : Default (MPEG)
Codec ID : XVID
Codec ID/Hint : XviD
Duration : 1h 2mn
Bit rate : 1 400 Kbps
Width : 640 pixels
Height : 360 pixels
Display aspect ratio : 16:9
Frame rate : 29.970 fps
Color space : YUV
Chroma subsampling : 4:2:0
Bit depth : 8 bits
Scan type : Progressive
Compression mode : Lossy
Bits/(Pixel*Frame) : 0.203
Stream size : 630 MiB (87%)
Writing library : XviD 1.2.1 (UTC 2008-12-04)
Audio
ID : 1
Format : MPEG Audio
Format version : Version 1
Format profile : Layer 3
Mode : Joint stereo
Codec ID : 55
Codec ID/Hint : MP3
Duration : 1h 2mn
Bit rate mode : Variable
Bit rate : 192 Kbps
Channel(s) : 2 channels
Sampling rate : 48.0 KHz
Compression mode : Lossy
Stream size : 86.4 MiB (12%)
Alignment : Aligned on interleaves
Interleave, duration : 24 ms (0.72 video frame)
Interleave, preload duration : 484 ms
Добавлена заключительная серия!


Последний раз редактировалось: dusy78 (2015-11-04 13:06), всего редактировалось 5 раз(а)
[Профиль] [ЛС]

dusy78 ®

Стаж: 3 года 10 месяцев

Сообщений: 1005

Откуда: Россия

Пост 23-Мар-2015 11:38 (спустя 16 дней)

[Цитировать]

Добавлены 2-3 серии!
[Профиль] [ЛС]

fruktea

Стаж: 2 года 4 месяца

Сообщений: 5

Пост 26-Мар-2015 06:02 (спустя 2 дня 18 часов)

[Цитировать]

что за дибильный голос у диктора раздражает нереально вообще не подходит мужской голос смените его!!!!!!!! а за перевод огромное спасибо!
[Профиль] [ЛС]

Ланочка10_83

Стаж: 3 года 1 месяц

Сообщений: 131

Пост 27-Мар-2015 08:33 (спустя 1 день 2 часа)

[Цитировать]

fruktea,
av не нравиться, не слушайте!!!
Спасибо Вам большое! ax Удачной озвучки! ;)
[Профиль] [ЛС]

dusy78 ®

Стаж: 3 года 10 месяцев

Сообщений: 1005

Откуда: Россия

Пост 12-Апр-2015 06:31 (спустя 15 дней)

[Цитировать]

Добавлены 4-6 серии!
[Профиль] [ЛС]

dusy78 ®

Стаж: 3 года 10 месяцев

Сообщений: 1005

Откуда: Россия

Пост 26-Апр-2015 15:56 (спустя 14 дней)

[Цитировать]

Добавлена 7 серия!
[Профиль] [ЛС]

Ritta.S

Стаж: 1 год 9 месяцев

Сообщений: 1

Пост 15-Июн-2015 14:28 (спустя 1 месяц 18 дней)

[Цитировать]

Дорама просто восхитительная - настоящий бриллиант. Пожалуйста, выложите поскорее остальные серии.
[Профиль] [ЛС]

Melind@

Стаж: 3 года 1 месяц

Сообщений: 79

Пост 01-Авг-2015 13:46 (спустя 1 месяц 16 дней)

[Цитировать]

Очень ждем финального обновления...
[Профиль] [ЛС]

Tainted-love

Стаж: 2 года 11 месяцев

Сообщений: 1180

Пост 02-Авг-2015 17:23 (спустя 1 день 3 часа)

[Цитировать]

Да... очень ждем...
[Профиль] [ЛС]

dusy78 ®

Стаж: 3 года 10 месяцев

Сообщений: 1005

Откуда: Россия

Пост 13-Авг-2015 15:05 (спустя 10 дней)

[Цитировать]

Добавлены заключительные серии!
[Профиль] [ЛС]
Показать сообщения:    
Ответить на тему

Текущее время: Сегодня 20:02

Часовой пояс: GMT



Вы не можете начинать темы
Вы не можете отвечать на сообщения
Вы не можете редактировать свои сообщения
Вы не можете удалять свои сообщения
Вы не можете голосовать в опросах
Вы не можете прикреплять файлы к сообщениям
Вы не можете скачивать файлы