Жалобы на работу трекера ! прошу сюда :)

Разъяренная мать / Angry mom / Aenggeurimam [16/16] [Choi Byung Gil] [2015г., комедия, школа, романтика, семейный, HDTVRip] [360р] VO GREEN TEA

Страницы :  1, 2  След.

Ответить на тему
 
Автор Сообщение

Nas ®

Стаж: 3 года 10 месяцев

Сообщений: 372

Пост 24-Мар-2015 19:27

[Цитировать]

Разъяренная мать
Angry mom / Aenggeurimam
- Страна: Южная Корея 2015г
Жанр: комедия, школа, романтика, семейный
Продолжительность: 16/16
-
Перевод: Одноголосый закадровый Антонина Лазаревская
-
Режиссер: Choi Byung Gil
Сценарий: Park Kyung Soo
В ролях:
Ким Хи Сон / Kim Hee Sun as Чо Кан Хи
Ким Ю Чжон / Kim Yoo Jung as О А Ран
Описание:
В школе Кан Хи была любительницей подраться. Но раннее материнство перевернуло ее жизнь, и ей пришлость быстро повзрослеть. И вот ее дочь уже тоже школьница. Только ее школьная жизнь не сравнима с маминой. В школе она постоянно подвергается издевательствам и травле. Этого Кан Хи стерпеть не может и, чтобы защитить свою дочь, отправляется снова в школу за парту.
-
Доп. информация:
Перевод: фсг "Мания"
Релиз группы GREEN TEA
Оформление постера: Елена Горборукова
Работа со звуком: Екатерина Юрьева
-Формат: AVI
Видео кодек: XVID
Аудио кодек: MP3
Видео: 624x352 pixels, 29.970 fps, 16:9, 1 450 Kbps
Аудио: 192 Kbps, 2 channels, 48.0 KHz
ОСТ к дораме Разъяренная мать
!!! Альтернативная раздача: 1080p (MKV, H.264)
!!! Альтернативная раздача: 720p (AVI, H.264)

MediaInfo

Video
ID : 0
Format : MPEG-4 Visual
Format profile : Advanced Simple@L5
Format settings, BVOP : No
Format settings, QPel : No
Format settings, GMC : No warppoints
Format settings, Matrix : Default (MPEG)
Codec ID : XVID
Codec ID/Hint : XviD
Duration : 1h 0mn
Bit rate : 1 448 Kbps
Width : 624 pixels
Height : 352 pixels
Display aspect ratio : 16:9
Frame rate : 29.970 fps
Color space : YUV
Chroma subsampling : 4:2:0
Bit depth : 8 bits
Scan type : Progressive
Compression mode : Lossy
Bits/(Pixel*Frame) : 0.220
Stream size : 626 MiB (88%)
Writing library : XviD 64
Audio
ID : 1
Format : MPEG Audio
Format version : Version 1
Format profile : Layer 3
Mode : Joint stereo
Codec ID : 55
Codec ID/Hint : MP3
Duration : 1h 0mn
Bit rate mode : Constant
Bit rate : 192 Kbps
Channel(s) : 2 channels
Sampling rate : 48.0 KHz
Compression mode : Lossy
Stream size : 83.0 MiB (12%)
Alignment : Aligned on interleaves
Interleave, duration : 33 ms (1.00 video frame)
Interleave, preload duration : 504 ms

Скриншоты



Последний раз редактировалось: Nas (2015-05-19 15:14), всего редактировалось 5 раз(а)
[Профиль] [ЛС]

Ланочка10_83

Стаж: 3 года 1 месяц

Сообщений: 131

Пост 25-Мар-2015 04:56 (спустя 9 часов)

[Цитировать]

Спасибо! :)
[Профиль] [ЛС]

nnestor

Стаж: 2 года 11 месяцев

Сообщений: 116

Пост 25-Мар-2015 19:49 (спустя 14 часов)

[Цитировать]

ишь ты. надеюсь будет интересно и весело
[Профиль] [ЛС]

6sda6

Стаж: 3 года 10 месяцев

Сообщений: 6

Пост 27-Мар-2015 19:11 (спустя 1 день 23 часа)

[Цитировать]

А будет ли раздача на 720?
[Профиль] [ЛС]

rsunset

Стаж: 3 года 2 месяца

Сообщений: 1

Пост 29-Мар-2015 19:48 (спустя 2 дня)

[Цитировать]

Спасибо вам большое!
Будет раздача на 720р? Я могу скинуть ссылку откуда можно скачать формат на 720.
[Профиль] [ЛС]

Фрия

Стаж: 1 год 8 месяцев

Сообщений: 13

Пост 01-Апр-2015 14:59 (спустя 2 дня 19 часов)

[Цитировать]

Добрый день!
Подскажите, пожалуйста, а когда появятся 2, 3, 4 серии?
[Профиль] [ЛС]

Nas ®

Стаж: 3 года 10 месяцев

Сообщений: 372

Пост 01-Апр-2015 15:32 (спустя 32 минуты)

[Цитировать]

Добавлены 2-3 серии!
[Профиль] [ЛС]

Nas ®

Стаж: 3 года 10 месяцев

Сообщений: 372

Пост 04-Апр-2015 17:44 (спустя 3 дня)

[Цитировать]

Добавлена 4 серия!
Внимание: было изменено название папки!
[Профиль] [ЛС]

bsed

Стаж: 1 год 10 месяцев

Сообщений: 2

Пост 05-Апр-2015 16:25 (спустя 22 часа)

[Цитировать]

Ну вот что за манера - на пол пути переименовывать папки...
[Профиль] [ЛС]

Nas ®

Стаж: 3 года 10 месяцев

Сообщений: 372

Пост 15-Апр-2015 00:59 (спустя 9 дней)

[Цитировать]

Добавлены 5-7 серии!
[Профиль] [ЛС]

Nas ®

Стаж: 3 года 10 месяцев

Сообщений: 372

Пост 15-Апр-2015 00:59 (спустя 20 секунд)

[Цитировать]

bsed, ну значит так нужно было
[Профиль] [ЛС]

bsed

Стаж: 1 год 10 месяцев

Сообщений: 2

Пост 20-Апр-2015 20:22 (спустя 5 дней)

[Цитировать]

bsed, ну значит так нужно было
И всё равно - спасибо. Одна из немногих дорам, которая мне пока нравится. Правда комедии здесь почти нет, а вот драмы хватает.
[Профиль] [ЛС]

Nas ®

Стаж: 3 года 10 месяцев

Сообщений: 372

Пост 25-Апр-2015 17:10 (спустя 4 дня)

[Цитировать]

Добавлены 8-10 серии!
[Профиль] [ЛС]

a1exander

Стаж: 3 года 1 месяц

Сообщений: 38

Пост 26-Апр-2015 08:45 (спустя 15 часов)

[Цитировать]

интересно посмотреть как 37 тетка будет играть старшеклассницу, после двух серий вроди неплохо
[Профиль] [ЛС]

Скарлетт

Стаж: 3 года 8 месяцев

Сообщений: 6

Пост 10-Май-2015 15:31 (спустя 14 дней)

[Цитировать]

Подскажите, пожалуйста, когда появятся с 11 по 14 серии?
Спасибо!
[Профиль] [ЛС]
Показать сообщения:    
Ответить на тему

Текущее время: Сегодня 22:08

Часовой пояс: GMT



Вы не можете начинать темы
Вы не можете отвечать на сообщения
Вы не можете редактировать свои сообщения
Вы не можете удалять свои сообщения
Вы не можете голосовать в опросах
Вы не можете прикреплять файлы к сообщениям
Вы не можете скачивать файлы