Жалобы на работу трекера ! прошу сюда :)

Апельсиновый мармелад / Orange Marmalade [12/12] [Lee Hyeon Min] [2015 г., школа, вампиры, фантастика, романтика, HDTVRip] [720р] DVO GREEN TEA

Страницы :  1, 2  След.

Ответить на тему
 
Автор Сообщение

Nas ®

Стаж: 3 года 10 месяцев

Сообщений: 372

Пост 17-Май-2015 16:46

[Цитировать]

Апельсиновый мармелад / Orange Marmalade- Выпуск: 15.05.2015г.
Время показа: пятница
Страна: Южная Корея 2015г
Жанр:школа, вампиры, фантастика, романтика
Продолжительность: 12/12
-
Перевод: Двухголосый закадровый Анастасия Романова и Макс Коллапс
-
Режиссер: Lee Hyeon Min
В ролях:
Yeo Jin Goo - Чон Дже Мин
Seol Hyun - Пэк Ма Ри
Lee Jong Hyun - Хан Си Ху
Song Jong Ho - учитель Хан Ён Джэ
Gil Eun Hye - Чо А Ра
Lee Il Hwa - мама Дже Мина
Ahn Kil Kang - Пэк Сын Хон
Yun Ye Hee - Сон Сан Хва
Описание:
Вот уже 200 лет люди и вампиры заключили мирный договор, но между собой до сих пор не ладят. Стоит только твоим друзьям узнать, что ты не человек, так на тебя все показывают пальцем и называют монстром. И никому не важно, что свежей кровью вампиры уже не питаются, а используют специальную - пакетированную.
Семья Пэк Ма Ри только что переехала из другого города. Девушка идет в новую школу, заводит новых друзей. Живет самой обычной жизнью. Но никто не знает, что на самом дела она вампир. Ма Ри не хочет стать объектом намесшек и издевательств, поэтому тщательно скрывает свою сущность. И у нее это вроде хорошо получается до тех пор, пока она не встретила Чон Джэ Мина. Кто же мог подумать, что в девушку влюбится самый популярный парень школы?
(с) Sakino Naoki
-
Доп. информация:
Перевод: фсг "Cardinals"
Релиз группы GREEN TEA
Оформление постера: Марина Фурман (стажер группы)
Координация: Екатерина Амальфи
Работа со звуком: Ольга Гринтиева
-Качество видео: HDTVRip
Формат: AVI
Видео кодек: H264
Аудио кодек: MP3
Видео: 1280x720 pixels, 29.970 fps, 16:9, 2 837 Kbps
Аудио: 192 Kbps, 2 channels, 48.0 KHz
ОСТ к дораме Апельсиновый мармелад
!!! Альтернативная раздача 640х360

MediaInfo

Format : AVI
Format/Info : Audio Video Interleave
File size : 949 MiB
Duration : 46mn 45s
Overall bit rate : 2 837 Kbps
Writing application : VirtualDubMod 1.5.10.2 (build 2540/release)
Writing library : VirtualDubMod build 2540/release
Video
ID : 0
Format : AVC
Format/Info : Advanced Video Codec
Format profile : High@L3.1
Format settings, CABAC : No
Format settings, ReFrames : 1 frame
Codec ID : H264
Duration : 46mn 45s
Bit rate : 2 634 Kbps
Nominal bit rate : 2 916 Kbps
Width : 1 280 pixels
Height : 720 pixels
Display aspect ratio : 16:9
Frame rate : 29.970 fps
Color space : YUV
Chroma subsampling : 4:2:0
Bit depth : 8 bits
Scan type : Progressive
Bits/(Pixel*Frame) : 0.095
Stream size : 881 MiB (93%)
Writing library : x264 core 116 r2057kMod 0ba8a9c
Encoding settings : cabac=0 / ref=1 / deblock=1:0:0 / analyse=0x3:0x13 / me=umh / subme=7 / psy=1 / fade_compensate=0.00 / psy_rd=1.00:0.00 / mixed_ref=0 / me_range=16 / chroma_me=1 / trellis=1 / 8x8dct=1 / cqm=0 / deadzone=21,11 / fast_pskip=1 / chroma_qp_offset=-2 / threads=4 / sliced_threads=1 / slices=4 / nr=0 / decimate=1 / interlaced=0 / bluray_compat=0 / constrained_intra=0 / bframes=0 / weightp=2 / keyint=250 / keyint_min=25 / scenecut=40 / intra_refresh=0 / rc=abr / mbtree=0 / bitrate=2916 / ratetol=1.0 / qcomp=0.60 / qpmin=10 / qpmax=51 / qpstep=4 / ip_ratio=1.40 / aq=1:1.00
Audio
ID : 1
Format : MPEG Audio
Format version : Version 1
Format profile : Layer 3
Mode : Joint stereo
Codec ID : 55
Codec ID/Hint : MP3
Duration : 46mn 45s
Bit rate mode : Constant
Bit rate : 192 Kbps
Channel(s) : 2 channels
Sampling rate : 48.0 KHz
Compression mode : Lossy
Stream size : 64.2 MiB (7%)
Alignment : Aligned on interleaves
Interleave, duration : 33 ms (1.00 video frame)
Interleave, preload duration : 504 ms

Скриншоты



Последний раз редактировалось: Nas (2015-06-07 21:44), всего редактировалось 5 раз(а)
[Профиль] [ЛС]

olerka

Стаж: 2 года

Сообщений: 1

Пост 18-Май-2015 05:26 (спустя 12 часов)

[Цитировать]

спасибо за озвучку!)
[Профиль] [ЛС]

ore.sama

Стаж: 2 года 6 месяцев

Сообщений: 1

Пост 19-Май-2015 13:46 (спустя 1 день 8 часов)

[Цитировать]

заценем,спасибо за труд :3
[Профиль] [ЛС]

neudachnica

Стаж: 1 год 9 месяцев

Сообщений: 3

Пост 19-Май-2015 17:53 (спустя 4 часа)

[Цитировать]

Неожиданно понравился сериал! Спасибо большое! Надеюсь дальше будет еще лучше! :)
[Профиль] [ЛС]

Nas ®

Стаж: 3 года 10 месяцев

Сообщений: 372

Пост 23-Май-2015 20:58 (спустя 4 дня)

[Цитировать]

Добавлена 3 серия!
[Профиль] [ЛС]

Nas ®

Стаж: 3 года 10 месяцев

Сообщений: 372

Пост 31-Май-2015 16:49 (спустя 7 дней)

[Цитировать]

Добавлена 4 серия!
[Профиль] [ЛС]

DarkSeer55

Стаж: 2 года 4 месяца

Сообщений: 1

Пост 03-Июн-2015 20:57 (спустя 3 дня)

[Цитировать]

Хорошо экранизирована манхва, очень понравилось
[Профиль] [ЛС]

Nas ®

Стаж: 3 года 10 месяцев

Сообщений: 372

Пост 07-Июн-2015 21:45 (спустя 4 дня)

[Цитировать]

Добавлена 5 серия!
[Профиль] [ЛС]

E2072

Стаж: 3 года 2 месяца

Сообщений: 120

Пост 18-Июн-2015 22:25 (спустя 11 дней)

[Цитировать]

Когда продолжение?
[Профиль] [ЛС]

diva.ufa

Стаж: 3 года 2 месяца

Сообщений: 19

Пост 16-Июл-2015 10:39 (спустя 27 дней)

[Цитировать]

Спасибо за релиз! Люблю эдакое...
Когда же продолжение? Заждались уже... Не знай у всего трекера летние каникулы? ;) Жду с нетерпением!
[Профиль] [ЛС]

FoxVA

Стаж: 1 год 3 месяца

Сообщений: 1

Пост 18-Авг-2015 21:26 (спустя 1 месяц 2 дня)

[Цитировать]

Когда 6 серия??
[Профиль] [ЛС]

aivir

Стаж: 1 год 5 месяцев

Сообщений: 3

Пост 20-Дек-2015 21:30 (спустя 4 месяца 2 дня)

[Цитировать]

Здравствуйте!Когда вы выложите оставшиеся 5 серий в hd?Заранее спасибо!
[Профиль] [ЛС]

Sicret

Стаж: 1 год 11 месяцев

Сообщений: 2

Пост 27-Фев-2016 22:40 (спустя 2 месяца 7 дней)

[Цитировать]

спасибо за озвучку!)
А где остальные серии уже который месяц жду(
[Профиль] [ЛС]

Nas ®

Стаж: 3 года 10 месяцев

Сообщений: 372

Пост 31-Мар-2016 18:55 (спустя 1 месяц 3 дня)

[Цитировать]

Добавлены 6-12 серии!
[Профиль] [ЛС]

another

Стаж: 3 года 2 месяца

Сообщений: 24

Пост 01-Апр-2016 10:19 (спустя 15 часов)

[Цитировать]

ничёсе.... Один релиз в месяц. Тут какой то развод... с 1 апреля?
[Профиль] [ЛС]
Показать сообщения:    
Ответить на тему

Текущее время: Сегодня 20:06

Часовой пояс: GMT



Вы не можете начинать темы
Вы не можете отвечать на сообщения
Вы не можете редактировать свои сообщения
Вы не можете удалять свои сообщения
Вы не можете голосовать в опросах
Вы не можете прикреплять файлы к сообщениям
Вы не можете скачивать файлы