Жалобы на работу трекера ! прошу сюда :)

Апельсиновый мармелад / Orange Marmalade [12/12] [Lee Hyeon Min] [2015 г., школа, вампиры, фантастика, романтика, HDTVRip] [360р] DVO GREEN TEA

Ответить на тему
 
Автор Сообщение

dusy78 ®

Стаж: 3 года 10 месяцев

Сообщений: 1005

Откуда: Россия

Пост 18-Май-2015 05:57

[Цитировать]

Апельсиновый мармелад / Orange Marmalade Год выпуска: 2015
Страна: Южная Корея
Жанр: школа, вампиры, фантастика, романтика
Продолжительность: 12/12
Озвучивание: Анастасия Романова и Макс Коллапс
Семпл: https://yadi.sk/i/Ui5QMBdRghnsH
Режиссер: Lee Hyeon Min
В ролях:
Yeo Jin Goo - Чон Дже Мин
Seol Hyun - Пэк Ма Ри
Lee Jong Hyun - Хан Си Ху
Song Jong Ho - учитель Хан Ён Джэ
Gil Eun Hye - Чо А Ра
Lee Il Hwa - мама Дже Мина
Ahn Kil Kang - Пэк Сын Хон
Yun Ye Hee - Сон Сан Хва
Описание: Вот уже 200 лет люди и вампиры заключили мирный договор, но между собой до сих пор не ладят. Стоит только твоим друзьям узнать, что ты не человек, так на тебя все показывают пальцем и называют монстром. И никому не важно, что свежей кровью вампиры уже не питаются, а используют специальную - пакетированную.
Семья Пэк Ма Ри только что переехала из другого города. Девушка идет в новую школу, заводит новых друзей. Живет самой обычной жизнью. Но никто не знает, что на самом дела она вампир. Ма Ри не хочет стать объектом намешек и издевательств, поэтому тщательно скрывает свою сущность. И у нее это вроде хорошо получается до тех пор, пока она не встретила Чон Джэ Мина. Кто же мог подумать, что в девушку влюбится самый популярный парень школы?
(с) Sakino Naoki
Доп. информация:
Перевод: фсг "Cardinals"
Релиз группы GREEN TEA
Оформление постера: Марина Фурман (стажер группы)
Координация: Екатерина Амальфи
Работа со звуком: Ольга Гринтиева

Качество: HDTVRip
Формат: AVI
Видео кодек: XviD
Аудио кодек: MP3
Видео: 640х360 pixels, 29.970 fps, 16:9, ~ 1400 Kbps
Аудио: 192 Kbps, 2 channels, 48.0 KHz
ОСТ к дораме Апельсиновый мармелад
!!! Альтернативная раздача 1280x720

Скриншоты

MediaInfo

Format : AVI
Format/Info : Audio Video Interleave
File size : 536 MiB
Duration : 46mn 45s
Overall bit rate : 1 604 Kbps
Writing application : Lavf52.93.0
Video
ID : 0
Format : xvid
Codec ID : xvid
Duration : 46mn 45s
Bit rate : 1 398 Kbps
Width : 640 pixels
Height : 360 pixels
Display aspect ratio : 16:9
Frame rate : 29.970 fps
Bits/(Pixel*Frame) : 0.203
Stream size : 468 MiB (87%)
Audio
ID : 1
Format : MPEG Audio
Format version : Version 1
Format profile : Layer 3
Mode : Joint stereo
Mode extension : MS Stereo
Codec ID : 55
Codec ID/Hint : MP3
Duration : 46mn 45s
Bit rate mode : Constant
Bit rate : 192 Kbps
Channel(s) : 2 channels
Sampling rate : 48.0 KHz
Compression mode : Lossy
Stream size : 64.2 MiB (12%)
Alignment : Aligned on interleaves
Interleave, duration : 24 ms (0.72 video frame)
Interleave, preload duration : 24 ms
Добавлены 06-12 серии!


Последний раз редактировалось: dusy78 (2016-04-03 18:09), всего редактировалось 6 раз(а)
[Профиль] [ЛС]

dusy78 ®

Стаж: 3 года 10 месяцев

Сообщений: 1005

Откуда: Россия

Пост 18-Май-2015 12:08 (спустя 6 часов)

[Цитировать]

Добавлена 2 серия!
[Профиль] [ЛС]

Ланочка10_83

Стаж: 3 года 1 месяц

Сообщений: 131

Пост 19-Май-2015 03:44 (спустя 15 часов)

[Цитировать]

ухты bo пасибо большое!!! ax
[Профиль] [ЛС]

limitana

Стаж: 3 года 10 месяцев

Сообщений: 153

Пост 21-Май-2015 11:48 (спустя 2 дня 8 часов)

[Цитировать]

Спасибочки!
[Профиль] [ЛС]

yan-blinov

Стаж: 1 год 9 месяцев

Сообщений: 1

Пост 24-Май-2015 07:42 (спустя 2 дня 19 часов)

[Цитировать]

^^
[Профиль] [ЛС]

dusy78 ®

Стаж: 3 года 10 месяцев

Сообщений: 1005

Откуда: Россия

Пост 01-Июн-2015 18:33 (спустя 8 дней)

[Цитировать]

Добавлены 3-4 серии!
[Профиль] [ЛС]

rodqer

Стаж: 3 года 10 месяцев

Сообщений: 417

Откуда: кемерово

Пост 13-Июл-2015 06:07 (спустя 1 месяц 11 дней)

[Цитировать]

dusy78, скажите пожалуйста а почему так давно не обновлялся торрент и не только эта раздача а почти все
[Профиль] [ЛС]

rodqer

Стаж: 3 года 10 месяцев

Сообщений: 417

Откуда: кемерово

Пост 13-Июл-2015 06:10 (спустя 2 минуты)

[Цитировать]

dusy78, а да и новые раздачи тоже не выкладывают с http://green-tea.tv/ почему?
[Профиль] [ЛС]

Диана Реннер

Стаж: 2 года 1 месяц

Сообщений: 9

Пост 05-Окт-2015 17:10 (спустя 2 месяца 23 дня)

[Цитировать]

А почему в одной раздаче серий 12, а в другой 16???
[Профиль] [ЛС]

Anna Kim

Стаж: 10 месяцев

Сообщений: 1

Пост 05-Фев-2016 16:57 (спустя 3 месяца 30 дней)

[Цитировать]

И как скачать ? Кто нибудь подскажите!...
[Профиль] [ЛС]

dusy78 ®

Стаж: 3 года 10 месяцев

Сообщений: 1005

Откуда: Россия

Пост 03-Апр-2016 16:03 (спустя 1 месяц 26 дней)

[Цитировать]

Добавлены 06-12 серии!
[Профиль] [ЛС]
Показать сообщения:    
Ответить на тему

Текущее время: Сегодня 16:01

Часовой пояс: GMT



Вы не можете начинать темы
Вы не можете отвечать на сообщения
Вы не можете редактировать свои сообщения
Вы не можете удалять свои сообщения
Вы не можете голосовать в опросах
Вы не можете прикреплять файлы к сообщениям
Вы не можете скачивать файлы