Жалобы на работу трекера ! прошу сюда :)

Моя любимая Ын Дон / My love Eun Dong [16/16] (Ким Тхэ Гон) [2015 г., драма,романтика, HDTVRip] DVO GREEN TEA [720]

Ответить на тему
 
Автор Сообщение

dusy78 ®

Стаж: 3 года 10 месяцев

Сообщений: 1005

Откуда: Россия

Пост 12-Сен-2015 13:21

[Цитировать]

Моя любимая Ын Дон / My love Eun Dong
Год выпуска: 2015
Страна: Южная Корея
Жанр: драма, романтика
Продолжительность: 16/16
Озвучивание: Елена Егорова и Андрей Лазарчук
СЕМПЛ: https://yadi.sk/i/b2AsKXKrj3WPN

Режиссер: Ким Тхэ Гон
В ролях:
Ким Са Ран,
Чу Джин Мо,
Пак Джин Ён,
Юн Со Хи,
Ким Дон Хи,
Ли Чжа Ин,
Ким Ён Хи,
Ким Ю Ри,
Ким Тхэ Хун
Описание: Чжи Ын Хо далек от идеала, он довольно раздражительный и настороженный человек. Ын Хо стал актером не ради известности или популярности, а для того чтобы встретить свою первую любовь Ын Дон.Он убежден, что не сможет полюбить кого-нибудь еще, поэтому одержим идеей найти ее.Их запутанная любовная история охватывает долгих 20 лет.Когда Ын Хо наконец-то встречает Ын Дон, она меняет его жизнь, но это уже не та девочка, в которую он когда-то был влюблен. Она выросла и изменилась. Можете ли вы вернуться к первой любви? Или вы совсем другой человек 20 лет спустя?
Доп. информация:
Релиз группы: GREEN TEA
Перевод: фсг Big Boss
Работа со звуком: Ольга Гринтиева
Оформление постера: Елена Горборукова

Качество: HDTVRip
Формат: MKV
Видео кодек: Другой MPEG4
Аудио кодек: MP3
Видео: 1280х720, 2500 Кбит/с, 29,970 fps
Аудио: 44100 Гц, 192 Кбит/с, 2 канала
ОСТ к дораме Моя любимая Ын Дон
!!! Альтернативная раздача 640х352

Скриншоты

MediaInfo

Format : Matroska
Format version : Version 2
File size : 1.17 GiB
Duration : 1h 2mn
Overall bit rate : 2 693 Kbps
Encoded date : UTC 2015-09-09 14:56:23
Writing application : mkvmerge v5.5.0 ('Healer') built on Apr 6 2012 21:43:24
Writing library : libebml v1.2.3 + libmatroska v1.3.0
Video
ID : 1
Format : AVC
Format/Info : Advanced Video Codec
Format profile : High@L3.1
Format settings, CABAC : Yes
Format settings, ReFrames : 2 frames
Muxing mode : Header stripping
Codec ID : V_MPEG4/ISO/AVC
Duration : 1h 2mn
Bit rate : 2 500 Kbps
Width : 1 280 pixels
Height : 720 pixels
Display aspect ratio : 16:9
Frame rate mode : Constant
Frame rate : 29.970 fps
Color space : YUV
Chroma subsampling : 4:2:0
Bit depth : 8 bits
Scan type : Progressive
Bits/(Pixel*Frame) : 0.091
Stream size : 1.07 GiB (91%)
Writing library : x264 core 129
Encoding settings : cabac=1 / ref=2 / deblock=1:0:0 / analyse=0x3:0x113 / me=hex / subme=6 / psy=1 / psy_rd=1.00:0.00 / mixed_ref=1 / me_range=16 / chroma_me=1 / trellis=0 / 8x8dct=1 / cqm=0 / deadzone=21,11 / fast_pskip=1 / chroma_qp_offset=-2 / threads=2 / lookahead_threads=1 / sliced_threads=0 / nr=0 / decimate=1 / interlaced=0 / bluray_compat=0 / constrained_intra=0 / bframes=0 / weightp=2 / keyint=250 / keyint_min=25 / scenecut=40 / intra_refresh=0 / rc_lookahead=40 / rc=2pass / mbtree=1 / bitrate=2500 / ratetol=1.0 / qcomp=0.60 / qpmin=10 / qpmax=51 / qpstep=4 / cplxblur=20.0 / qblur=0.5 / ip_ratio=1.41 / aq=1:1.00
Default : Yes
Forced : No
Audio
ID : 2
Format : MPEG Audio
Format version : Version 1
Format profile : Layer 3
Muxing mode : Header stripping
Codec ID : A_MPEG/L3
Codec ID/Hint : MP3
Duration : 1h 2mn
Bit rate mode : Constant
Bit rate : 192 Kbps
Channel(s) : 2 channels
Sampling rate : 44.1 KHz
Compression mode : Lossy
Stream size : 85.7 MiB (7%)
Default : Yes
Forced : No
[Профиль] [ЛС]

nnestor

Стаж: 2 года 10 месяцев

Сообщений: 116

Пост 13-Сен-2015 18:52 (спустя 1 день 5 часов)

[Цитировать]

финал корейский или японский?
[Профиль] [ЛС]

Jane

Стаж: 1 год

Сообщений: 2

Пост 29-Ноя-2015 16:33 (спустя 2 месяца 15 дней)

[Цитировать]

nnestor, просветите, в чем разница?
[Профиль] [ЛС]

nnestor

Стаж: 2 года 10 месяцев

Сообщений: 116

Пост 14-Дек-2015 22:14 (спустя 15 дней)

[Цитировать]

nnestor, просветите, в чем разница?
в моём понимании и опыте просмотра - разница в том что чаще всего в японских мелодраматичных дорамах нет классического хеппи энда - у них там обычно "все умрут/время и труд-всё перетрут"
А корейские мелодрамы чаще имеют настоящий хэппиэндовый финал. Либо ГГ находят любовь в лице друг друга, либо находят её в ком то другом.
утрируя у японцев очень много драмы-слезы ради слез
[Профиль] [ЛС]
Показать сообщения:    
Ответить на тему

Текущее время: Сегодня 22:25

Часовой пояс: GMT



Вы не можете начинать темы
Вы не можете отвечать на сообщения
Вы не можете редактировать свои сообщения
Вы не можете удалять свои сообщения
Вы не можете голосовать в опросах
Вы не можете прикреплять файлы к сообщениям
Вы не можете скачивать файлы