Жалобы на работу трекера ! прошу сюда :)

Моя любимая Ын Дон / My love Eun Dong [16/16] (Ким Тхэ Гон) [2015 г., драма,романтика, TVRip] DVO GREEN TEA [360]

Ответить на тему
 
Автор Сообщение

dusy78 ®

Стаж: 3 года 10 месяцев

Сообщений: 1005

Откуда: Россия

Пост 12-Сен-2015 13:33

[Цитировать]

Моя любимая Ын Дон / My love Eun Dong
Год выпуска: 2015
Страна: Южная Корея
Жанр: драма, романтика
Продолжительность: 16/16
Озвучивание: Елена Егорова и Андрей Лазарчук
СЕМПЛ: https://yadi.sk/i/hnSXnRymj3X8J

Режиссер: Ким Тхэ Гон
В ролях:
Ким Са Ран,
Чу Джин Мо,
Пак Джин Ён,
Юн Со Хи,
Ким Дон Хи,
Ли Чжа Ин,
Ким Ён Хи,
Ким Ю Ри,
Ким Тхэ Хун
Описание: Чжи Ын Хо далек от идеала, он довольно раздражительный и настороженный человек. Ын Хо стал актером не ради известности или популярности, а для того чтобы встретить свою первую любовь Ын Дон.Он убежден, что не сможет полюбить кого-нибудь еще, поэтому одержим идеей найти ее.Их запутанная любовная история охватывает долгих 20 лет.Когда Ын Хо наконец-то встречает Ын Дон, она меняет его жизнь, но это уже не та девочка, в которую он когда-то был влюблен. Она выросла и изменилась. Можете ли вы вернуться к первой любви? Или вы совсем другой человек 20 лет спустя?
Доп. информация:
Релиз группы: GREEN TEA
Перевод: фсг Big Boss
Работа со звуком: Ольга Гринтиева
Оформление постера: Елена Горборукова

Качество: VRip
Формат: AVI
Видео кодек: DivX
Аудио кодек: MP3
Видео: 640х352, ~ 1250 Кбит/с, 29,970 fps
Аудио: 44100 Гц, 192 Кбит/с, 2 канала
ОСТ к дораме Моя любимая Ын Дон
!!! Альтернативная раздача 1280х720

Скриншоты

MediaInfo

Format : AVI
Format/Info : Audio Video Interleave
File size : 643 MiB
Duration : 1h 2mn
Overall bit rate : 1 440 Kbps
Writing application : VirtualDubMod 1.5.10.2 (build 2542/release)
Writing library : VirtualDubMod build 2542/release
Video
ID : 0
Format : MPEG-4 Visual
Format profile : Advanced Simple@L5
Format settings, BVOP : 2
Format settings, QPel : No
Format settings, GMC : No warppoints
Format settings, Matrix : Default (MPEG)
Codec ID : DX50
Codec ID/Hint : DivX 5
Duration : 1h 2mn
Bit rate : 1 237 Kbps
Width : 640 pixels
Height : 352 pixels
Display aspect ratio : 16:9
Frame rate : 29.970 fps
Color space : YUV
Chroma subsampling : 4:2:0
Bit depth : 8 bits
Scan type : Progressive
Compression mode : Lossy
Bits/(Pixel*Frame) : 0.183
Stream size : 552 MiB (86%)
Writing library : XviD 1.2.1 (UTC 2008-12-04)
Audio
ID : 1
Format : MPEG Audio
Format version : Version 1
Format profile : Layer 3
Codec ID : 55
Codec ID/Hint : MP3
Duration : 1h 2mn
Bit rate mode : Constant
Bit rate : 192 Kbps
Channel(s) : 2 channels
Sampling rate : 44.1 KHz
Compression mode : Lossy
Stream size : 85.6 MiB (13%)
Alignment : Split accross interleaves
Interleave, duration : 33 ms (1.00 video frame)
Interleave, preload duration : 500 ms


Последний раз редактировалось: dusy78 (2015-09-17 11:42), всего редактировалось 1 раз
[Профиль] [ЛС]

konspirator1985

Стаж: 3 года 10 месяцев

Сообщений: 45

Пост 15-Сен-2015 12:05 (спустя 2 дня 22 часа)

[Цитировать]

Когда можно будет скачать? Или эта раздача заморожена?
[Профиль] [ЛС]

dusy78 ®

Стаж: 3 года 10 месяцев

Сообщений: 1005

Откуда: Россия

Пост 15-Сен-2015 13:55 (спустя 1 час 50 минут)

[Цитировать]

konspirator1985, раздача будет сегодня-завтра )))) Делаю
[Профиль] [ЛС]

konspirator1985

Стаж: 3 года 10 месяцев

Сообщений: 45

Пост 16-Сен-2015 07:27 (спустя 17 часов)

[Цитировать]

Спасибо большое, хочется посмотреть, для больших раздач места не хватает....
[Профиль] [ЛС]

dusy78 ®

Стаж: 3 года 10 месяцев

Сообщений: 1005

Откуда: Россия

Пост 17-Сен-2015 11:53 (спустя 1 день 4 часа)

[Цитировать]

Раздача обновлена!
[Профиль] [ЛС]

limitana

Стаж: 3 года 10 месяцев

Сообщений: 153

Пост 18-Сен-2015 05:50 (спустя 17 часов)

[Цитировать]

СПАСИБО!
[Профиль] [ЛС]

Tainted-love

Стаж: 2 года 11 месяцев

Сообщений: 1180

Пост 21-Сен-2015 07:22 (спустя 3 дня)

[Цитировать]

Сериал хорош... сюжетная линия интересна... игра актеров отличная всех.... кроме.... главного героя.... взрослого. Ну есть же в Корее актеры этого возраста которые играют намного лучше и на внешность симпатичнее... ну например... из сериала Достоинство джентельмена. Спасибо за работу над озвучкой... спасибо.
[Профиль] [ЛС]

dusy78 ®

Стаж: 3 года 10 месяцев

Сообщений: 1005

Откуда: Россия

Пост 21-Сен-2015 08:47 (спустя 1 час 24 минуты)

[Цитировать]

Tainted-love, ну на вкус и цвет))) мне как раз гг понравился. И игра, и внешность
[Профиль] [ЛС]

konspirator1985

Стаж: 3 года 10 месяцев

Сообщений: 45

Пост 21-Сен-2015 15:26 (спустя 6 часов)

[Цитировать]

А мне тоже этот актер очень нравится. Хорошо играет, да и вообще он в Корее очень знаменит, особенно хорошо в исторических ролях.
[Профиль] [ЛС]

Lucky_roar

Стаж: 1 год 4 месяца

Сообщений: 1

Пост 03-Окт-2015 18:49 (спустя 12 дней)

[Цитировать]

Отстой!
[Профиль] [ЛС]

nnestor

Стаж: 2 года 11 месяцев

Сообщений: 116

Пост 15-Окт-2015 09:44 (спустя 11 дней)

[Цитировать]

Нельзя так просто взять и перестать смотреть серию за серией. :-)
Блин... До двух ночи залип, и только 6серий
Эмоциональная допуска...
[Профиль] [ЛС]

jineura

Стаж: 3 года

Сообщений: 21

Пост 27-Ноя-2015 14:34 (спустя 1 месяц 12 дней)

[Цитировать]

Ой здорово, вы его озвучили! Очень хотелось посмотреть (нравится мне типаж Ггероини, жаль - мало снимают ее).
Теперь наконец посмотрю bp
[Профиль] [ЛС]

jineura

Стаж: 3 года

Сообщений: 21

Пост 09-Мар-2016 07:53 (спустя 3 месяца 11 дней)

[Цитировать]

Досмотрела. Очень понравилось. Такая эмоциональная и затягивающая вещь...
Критиковать и спойлерить не буду, скажу только, что абсолютно нескучная дорама оказалась (а казалось бы, как можно показывать 16 серий только "про любовь"? Оказалось - очень даже можно bs )
Озвучка отличная, спасибо вам большое. ay ax aa
А муж ГГероини - все-таки редкосный козел. Мало того, что девушке жизнь перепортил, так еще и сыну чуть жизнь не сломал. Зла не хватает на таких людей.
[Профиль] [ЛС]
Показать сообщения:    
Ответить на тему

Текущее время: Сегодня 05:47

Часовой пояс: GMT



Вы не можете начинать темы
Вы не можете отвечать на сообщения
Вы не можете редактировать свои сообщения
Вы не можете удалять свои сообщения
Вы не можете голосовать в опросах
Вы не можете прикреплять файлы к сообщениям
Вы не можете скачивать файлы