Жалобы на работу трекера ! прошу сюда :)

Прокурор в маске / Masked Prosecutor (Jeon San) [2015 г., детектив, романтика, TVRip] [360] DVO GREEN TEA

Ответить на тему
 
Автор Сообщение

dusy78 ®

Стаж: 3 года 10 месяцев

Сообщений: 1005

Откуда: Россия

Пост 26-Сен-2015 16:51

[Цитировать]

Прокурор в маске / Masked Prosecutor
Год выпуска: 2015
Страна: Южная Корея
Жанр: детектив, романтика
Продолжительность: 16 из 16 серий
Озвучивание: Ярослав Мельник и Марина Кириченко
СЕМПЛ: https://yadi.sk/i/Oww5bqYujLYrt
Режиссер: Jeon San
В ролях: Чу Сан Ук (Joo Sang Wook) - Ха Дэ Чхоль
Ким Сон А - Ю Мин Хи
Hwang Sun Hee
Jeon Kwang Ryul
Park Young Kyu
Описание: Днем Ха Дэ Чхоль (Чу Сан Ук) - уважаемый прокурор, но ночью он надевает маску и стремится наказать тех, до кого не смог добраться закон.
Ю Мин Хи (Ким Сон А) - женщина-детектив, которая пытается отыскать таинственного карателя.
Доп. информация: Перевод: фсг "Shadows"
Редакция: Алексей Хорошавин
Релиз группы GREEN TEA
Оформление постера: Дина Фаткуллина
Работа со звуком: Ярослав Мельник

Качество: TVRip
Формат: AVI
Видео кодек: XviD
Аудио кодек: MP3
Видео: 640х360, ~1400 Kbps, 29.970 fps
Аудио: 192 Kbps, 48 kHz, 2 ch
ОСТ к дораме Прокурор в маске
!!! Альтернативная раздача 1280х720
!!! Альтернативная раздача 800х450

Скриншоты

MediaInfo

Format : AVI
Format/Info : Audio Video Interleave
File size : 666 MiB
Duration : 58mn 8s
Overall bit rate : 1 603 Kbps
Writing application : VirtualDubMod 1.5.10.2 (build 2542/release)
Writing library : VirtualDubMod build 2542/release
Video
ID : 0
Format : MPEG-4 Visual
Format profile : Advanced Simple@L5
Format settings, BVOP : 2
Format settings, QPel : No
Format settings, GMC : No warppoints
Format settings, Matrix : Default (MPEG)
Codec ID : XVID
Codec ID/Hint : XviD
Duration : 58mn 8s
Bit rate : 1 399 Kbps
Width : 640 pixels
Height : 360 pixels
Display aspect ratio : 16:9
Frame rate : 29.970 fps
Color space : YUV
Chroma subsampling : 4:2:0
Bit depth : 8 bits
Scan type : Progressive
Compression mode : Lossy
Bits/(Pixel*Frame) : 0.203
Stream size : 582 MiB (87%)
Writing library : XviD 1.2.1 (UTC 2008-12-04)
Audio
ID : 1
Format : MPEG Audio
Format version : Version 1
Format profile : Layer 3
Mode : Joint stereo
Codec ID : 55
Codec ID/Hint : MP3
Duration : 58mn 8s
Bit rate mode : Constant
Bit rate : 192 Kbps
Channel(s) : 2 channels
Sampling rate : 48.0 KHz
Compression mode : Lossy
Stream size : 79.8 MiB (12%)
Alignment : Aligned on interleaves
Interleave, duration : 33 ms (1.00 video frame)
Interleave, preload duration : 504 ms
[Профиль] [ЛС]

Melind@

Стаж: 3 года 1 месяц

Сообщений: 79

Пост 26-Сен-2015 18:32 (спустя 1 час 40 минут)

[Цитировать]

Спасибо! bp
[Профиль] [ЛС]

Tainted-love

Стаж: 2 года 11 месяцев

Сообщений: 1180

Пост 26-Сен-2015 20:19 (спустя 1 час 47 минут)

[Цитировать]

bi Очень спасибо!!! bo
[Профиль] [ЛС]

Анастасия8

Стаж: 2 года 4 месяца

Сообщений: 3

Пост 27-Сен-2015 11:51 (спустя 15 часов)

[Цитировать]

спасибо большое! bk
[Профиль] [ЛС]

Vladykus

Стаж: 2 года 2 месяца

Сообщений: 1

Пост 27-Сен-2015 16:46 (спустя 4 часа)

[Цитировать]

стоит смотреть или как?
[Профиль] [ЛС]

Katherine

Стаж: 3 года 10 месяцев

Сообщений: 48

Пост 29-Сен-2015 08:28 (спустя 1 день 15 часов)

[Цитировать]

Спасибо, глянем-с, заценим-с))

_________________
[Профиль] [ЛС]
Показать сообщения:    
Ответить на тему

Текущее время: Сегодня 18:37

Часовой пояс: GMT



Вы не можете начинать темы
Вы не можете отвечать на сообщения
Вы не можете редактировать свои сообщения
Вы не можете удалять свои сообщения
Вы не можете голосовать в опросах
Вы не можете прикреплять файлы к сообщениям
Вы не можете скачивать файлы