Жалобы на работу трекера ! прошу сюда :)

МонСтар / MonStar / МонStar (Ким Вон Сок ) [12/12] [RUS(int)] [Южная Корея, 2013, музыкальный, романтика, школа, HDTVRip] [RAW] [720p]

Ответить на тему
 
Автор Сообщение

Nas ®

Стаж: 3 года 10 месяцев

Сообщений: 372

Пост 03-Окт-2013 23:39

[Цитировать]

МонСтар / MonStar
-
Страна: Южная Корея
Жанр: музыкальный, романтика, школа
Год выпуска: 2013
Продолжительность: 12/12 серий
-
Перевод: двухголосый закадровый Анастасия Романова и Александр Гаранч
Сэмпл: http://yadi.sk/d/peXkk-6B63BHy
-
Cубтитры: на песни внешним файлом
Режиссер: Ким Вон Сок
В ролях:
Ён Чун Хён (BEAST) - Юн Соль Чан
Ха Ён Су - Мин Се И
Кан Ха Ныль - Чон Сон У
Кристал
Ли Мин Хёк (BTOB)
Ли Чан Соб (BTOB)
Им Хён Шик (BTOB)
Юк Сон Чжэ (BTOB)
Описание:
"МонStar" - это история об обычных подростках, которые находят себя с помощью музыки.
Юн СолЧан (Ён ЧунХён) - обладает циничным и дерзким характером. Он живет с глубокой раной в душе, но не показывает свои настоящие чувства. Он является главным вокалистом популярной корейской группы «Men in Black». Из-за своего вспыльчивого характера СольЧан становится причиной проблем, и компания заставляет его вернуться в школу. Там он присоединяется к школьной рок-группе и сталкивается с неожиданными ситуациями.
-
Доп. информация:
Перевод: фансаб-группа "Мания"
Релиз: группа "GREEN TEA"
Оформление постера: MishaZ
Работа со звуком: Ольга Гринтиева

-
Качество видео: HDTV
Формат видео: AVI
Субтитры: на песни (внешние)
Видео: MPEG4, Video (H264) 1280x720, 29,970 кадров/сек
Аудио: MP3, 48,0 Гц, 192 Кбит/сек, 2 канала
!!! Альтернативная раздача 640х360
ОСТ к дораме МонСтар

MediaInfo

General
Complete name : D:\Видео\[GREEN TEA] МонСтар\[GREEN TEA] МонСтар 01.avi
Format : AVI
Format/Info : Audio Video Interleave
File size : 1.63 GiB
Duration : 1h 14mn
Overall bit rate : 3 117 Kbps
Writing application : VirtualDubMod 1.5.10.2 (build 2540/release)
Writing library : VirtualDubMod build 2540/release
Video
ID : 0
Format : AVC
Format/Info : Advanced Video Codec
Format profile : High@L3.1
Format settings, CABAC : No
Format settings, ReFrames : 1 frame
Codec ID : H264
Duration : 1h 14mn
Bit rate : 2 916 Kbps
Width : 1 280 pixels
Height : 720 pixels
Display aspect ratio : 16:9
Frame rate : 29.970 fps
Color space : YUV
Chroma subsampling : 4:2:0
Bit depth : 8 bits
Scan type : Progressive
Bits/(Pixel*Frame) : 0.106
Stream size : 1.52 GiB (93%)
Writing library : x264 core 115 r2008kMod 4c552d8
Encoding settings : cabac=0 / ref=1 / deblock=1:0:0 / analyse=0x3:0x13 / me=umh / subme=7 / psy=1 / fade_compensate=0.00 / psy_rd=1.00:0.00 / mixed_ref=0 / me_range=16 / chroma_me=1 / trellis=1 / 8x8dct=1 / cqm=0 / deadzone=21,11 / fast_pskip=1 / chroma_qp_offset=-2 / threads=4 / sliced_threads=1 / slices=4 / nr=0 / decimate=1 / interlaced=0 / bluray_compat=0 / constrained_intra=0 / bframes=0 / weightp=2 / keyint=250 / keyint_min=25 / scenecut=40 / intra_refresh=0 / rc_lookahead=0 / rc=abr / mbtree=0 / bitrate=2916 / ratetol=1.0 / qcomp=0.60 / qpmin=10 / qpmax=51 / qpstep=4 / vbv_maxrate=3000 / vbv_bufsize=2000 / nal_hrd=none / ip_ratio=1.40 / aq=1:1.00
Audio
ID : 1
Format : MPEG Audio
Format version : Version 1
Format profile : Layer 3
Mode : Joint stereo
Codec ID : 55
Codec ID/Hint : MP3
Duration : 1h 14mn
Bit rate mode : Constant
Bit rate : 192 Kbps
Channel(s) : 2 channels
Sampling rate : 48.0 KHz
Compression mode : Lossy
Stream size : 103 MiB (6%)
Alignment : Aligned on interleaves
Interleave, duration : 33 ms (1.00 video frame)
Interleave, preload duration : 504 ms

Скриншоты

[Профиль] [ЛС]

ONOR-IL

Стаж: 3 года 2 месяца

Сообщений: 12

Пост 24-Ноя-2014 16:59 (спустя 1 год 1 месяц)

[Цитировать]

Огромное КУМАО за эту чудесную дораму!!! Но вот почему в некоторых сериях сабы на песни спешат?!
[Профиль] [ЛС]
Показать сообщения:    
Ответить на тему

Текущее время: Сегодня 16:05

Часовой пояс: GMT



Вы не можете начинать темы
Вы не можете отвечать на сообщения
Вы не можете редактировать свои сообщения
Вы не можете удалять свои сообщения
Вы не можете голосовать в опросах
Вы не можете прикреплять файлы к сообщениям
Вы не можете скачивать файлы