Жалобы на работу трекера ! прошу сюда :)

МонСтар / MonStar / МонStar (Ким Вон Сок ) [12/12] [RUS(int)] [Южная Корея, 2013, музыкальный, романтика, школа, HDTVRip] [360p]

Ответить на тему
 
Автор Сообщение

Nas ®

Стаж: 3 года 10 месяцев

Сообщений: 372

Пост 03-Окт-2013 23:46

[Цитировать]

МонСтар / MonStar
Страна: Южная Корея
Жанр: музыкальный, романтика, школа
Год выпуска: 2013
Продолжительность: 12/12 серий
-
Перевод: двухголосый закадровый Анастасия Романова и Александр Гаранч
Сэмпл: http://yadi.sk/d/xosRPkcC63BYe
-
Cубтитры: нет
Режиссер: Ким Вон Сок
В ролях:
Ён Чун Хён (BEAST) - Юн Соль Чан
Ха Ён Су - Мин Се И
Кан Ха Ныль - Чон Сон У
Кристал
Ли Мин Хёк (BTOB)
Ли Чан Соб (BTOB)
Им Хён Шик (BTOB)
Юк Сон Чжэ (BTOB)
Описание:
"МонStar" - это история об обычных подростках, которые находят себя с помощью музыки.
Юн СолЧан (Ён ЧунХён) - обладает циничным и дерзким характером. Он живет с глубокой раной в душе, но не показывает свои настоящие чувства. Он является главным вокалистом популярной корейской группы «Men in Black». Из-за своего вспыльчивого характера СольЧан становится причиной проблем, и компания заставляет его вернуться в школу. Там он присоединяется к школьной рок-группе и сталкивается с неожиданными ситуациями.
-
Доп. информация:
Перевод: фансаб-группа "Мания"
Релиз: группа "GREEN TEA"
Работа со звуком: Ольга Гринтиева
Оформление постера: MishaZ

-
Качество видео: HDTVRip
Формат видео: AVI
Видео: MPEG4, XVID, 640x360, 29,970 кадров/сек
Аудио: MP3, 48,0 Гц, 192 Кбит/сек, 2 канала
!!! Альтернативная раздача 1280х720
ОСТ к дораме МонСтар

MediaInfo

General
Complete name : C:\Users\пользователь\Desktop\Для всего\[GREEN TEA] МонСтар\[GREEN TEA] MonStar 01.avi
Format : AVI
Format/Info : Audio Video Interleave
File size : 642 MiB
Duration : 1h 14mn
Overall bit rate : 1 197 Kbps
Video
ID : 0
Format : MPEG-4 Visual
Format profile : Advanced Simple@L5
Format settings, BVOP : 3
Format settings, QPel : No
Format settings, GMC : No warppoints
Format settings, Matrix : Default (H.263)
Codec ID : XVID
Codec ID/Hint : XviD
Duration : 1h 14mn
Bit rate : 998 Kbps
Width : 640 pixels
Height : 360 pixels
Display aspect ratio : 16:9
Frame rate : 29.970 fps
Color space : YUV
Chroma subsampling : 4:2:0
Bit depth : 8 bits
Scan type : Progressive
Compression mode : Lossy
Bits/(Pixel*Frame) : 0.145
Stream size : 535 MiB (83%)
Writing library : XviD 1.2.1 (UTC 2008-12-04)
Audio
ID : 1
Format : MPEG Audio
Format version : Version 1
Format profile : Layer 3
Mode : Joint stereo
Codec ID : 55
Codec ID/Hint : MP3
Duration : 1h 14mn
Bit rate mode : Constant
Bit rate : 192 Kbps
Channel(s) : 2 channels
Sampling rate : 48.0 KHz
Compression mode : Lossy
Stream size : 103 MiB (16%)
Alignment : Aligned on interleaves
Interleave, duration : 133 ms (4.00 video frames)
Interleave, preload duration : 216 ms
Title : 2.0

Скриншоты

Добавлена 12 серия!
[Профиль] [ЛС]

Ная

Стаж: 2 года 7 месяцев

Сообщений: 206

Откуда: Россия

Пост 11-Окт-2014 08:41 (спустя 1 год)

[Цитировать]

Прекрасный сериал!!!
Дружба, любовь, предательство, прощение и много всего ещё...
Сериал - некая смесь "Одержимых мечтой" и "Белого рождества".
Правда захватывает не сразу, первые пару серий он кажется простым и ни о чём, но с третьей серии сюжет закручивается, атмосфера накаляется, и дальше уже смотрится без отрыва.
Замечательные музыкальные номера словно вписаны в сюжет. Жаль только, что в последней серии нет перевода текста песен, а они довольно важны.
Очень интересный, неоднозначный финал.
Отличная озвучка! Большое спасибо всем кто работал над этим сериалом!!!!!!!!!!!!!!!!!!!!
[Профиль] [ЛС]
Показать сообщения:    
Ответить на тему

Текущее время: Сегодня 22:19

Часовой пояс: GMT



Вы не можете начинать темы
Вы не можете отвечать на сообщения
Вы не можете редактировать свои сообщения
Вы не можете удалять свои сообщения
Вы не можете голосовать в опросах
Вы не можете прикреплять файлы к сообщениям
Вы не можете скачивать файлы