Жалобы на работу трекера ! прошу сюда :)

Школа / Hakgyo 2013 / School 2013 [16/16] (Lee Eung Bok, Lee Min Hong) [2012 г., школа, романтика, повседневность, HDTVRip] [RAW] [450p] VO GREEN TEA

Страницы :  1, 2, 3, 4, 5  След.

Ответить на тему
 
Автор Сообщение

Klёпa ®

Стаж: 3 года 2 месяца

Сообщений: 906

Пост 05-Окт-2013 09:51

[Цитировать]

Школа / Hakgyo 2013 / School 2013
Год выпуска: 2012
Страна: Южная Корея
Жанр: Школа, романтика, повседневность
Продолжительность: 16 серий по 60 мин.-Перевод: Одноголосый (закадровый) Иван Серегин
Сэмпл: http://yadi.sk/d/TuO5DwjICbLAN-Режиссёр: Ли Ын Бок (Lee Eung Bok), Ли Мин Хон (Lee Min Hong)
В ролях:
# учеников
Ли Чжон Сок (Lee Jong Suk / 이종석) - Ко Нам Сун
Пак Сэ Ён (Park Se Young / 박세영) - Сон Ха Гён
Рю Хё Ён (Ryu Hyo Young) - Ли Ган Чжу
Ким У Бин (Kim Woo Bin / 김우빈) - Пак Хын Су
Чве Чан Юб (Choi Chang Yub / 최창엽) - Ким Мин Ки
Квак Чон Ук (Kwak Jung Wook / 곽정욱) - О Чжон Хо
Ким Ён Чун (Kim Young Choon) - Пён Ки Док
Ким Дон Сок (Kim Dong Suk) - Ким Дон Сок
Чон Су Чжин (Jun Soo Jin / 전수진) - Кё На Ри
Ким Чан Хван (Kim Chang Hwan) - Хан Ён У
# учителей
Чан На Ра (Jang Na Ra / 장나라) - Чон Ин Чжэ
Чве Даниэль (Choi Daniel / 최 다니엘) - Кан Сэ Чан
Ом Хё Соп (Uhm Hyo Sup) - Ом Дэ Ун
Пак Хэ Ми (Park Hae Mi) - Им Чжон Су
Ли Хан Ви (Lee Han Wie) - У Су Чоль
О Ён Силь (Oh Young Shil) - Ю Нан Хи
Юн Чу Сан (Yoon Joo Sang) - Чжо Пон Су-Описание:
Это 5 сезон популярной молодёжной дорамы "Школа", которая выходила в эфир с 1999 по 2002 год.
Сюжет "Школы 2013" вращается вокруг издевательств, взлётов и падений, а также других проблем, с которыми приходится каждый день сталкиваться подросткам.
После появления в этой дораме Чан Хёк, Пэ Ду На, Ким Мин Хи, Ха Чжи Вон, Чо Ин Сон и ряд других звёзд стали успешными.-Доп.информация:
Релиз группы GREEN TEA
Озвучено по субтитрам фансаб-группы "Альянс"
Работа со звуком: Евгений Шеменев (1-13 серии) и Ольга Гринтиева (14-16 серии)
Оформление постера: Елена Клёпкина-Качество видео: HDTVRip
Формат: AVI
Видео кодек: Xvid
Аудио кодек: MP3
Видео: 800x450, 1500 Кбит/c, 29.97 fps
Аудио: 48.0 KHz, 192 Кбит/с, 2 канала
ОСТ к дораме Школа 2013
!!! Альтернативная раздача: 1920х1080/MKV
!!! Альтернативная раздача: 1208х720/MKV

Mediainfo

Код:
General
Complete name                            : [GREEN TEA] School.2013_E01.avi
Format                                   : AVI
Format/Info                              : Audio Video Interleave
File size                                : 760 MiB
Duration                                 : 1h 2mn
Overall bit rate                         : 1 699 Kbps
Writing application                      : VirtualDubMod 1.5.10.2 (build 2542/release)
Writing library                          : VirtualDubMod build 2542/release
Video
ID                                       : 0
Format                                   : MPEG-4 Visual
Format profile                           : Advanced Simple@L5
Format settings, BVOP                    : 1
Format settings, QPel                    : No
Format settings, GMC                     : No warppoints
Format settings, Matrix                  : Default (H.263)
Codec ID                                 : XVID
Codec ID/Hint                            : XviD
Duration                                 : 1h 2mn
Bit rate                                 : 1 500 Kbps
Width                                    : 800 pixels
Height                                   : 450 pixels
Display aspect ratio                     : 16:9
Frame rate                               : 23.976 fps
Color space                              : YUV
Chroma subsampling                       : 4:2:0
Bit depth                                : 8 bits
Scan type                                : Progressive
Compression mode                         : Lossy
Bits/(Pixel*Frame)                       : 0.174
Stream size                              : 671 MiB (88%)
Writing library                          : XviD 1.2.1 (UTC 2008-12-04)
Audio
ID                                       : 1
Format                                   : MPEG Audio
Format version                           : Version 1
Format profile                           : Layer 3
Mode                                     : Joint stereo
Codec ID                                 : 55
Codec ID/Hint                            : MP3
Duration                                 : 1h 2mn
Bit rate mode                            : Constant
Bit rate                                 : 192 Kbps
Channel(s)                               : 2 channels
Sampling rate                            : 44.1 KHz
Compression mode                         : Lossy
Stream size                              : 85.7 MiB (11%)
Alignment                                : Aligned on interleaves
Interleave, duration                     : 64 ms (1.53 video frames)
Interleave, preload duration             : 78 ms

Скриншоты



Последний раз редактировалось: Klёпa (2014-02-12 23:12), всего редактировалось 20 раз(а)
[Профиль] [ЛС]

Klёпa ®

Стаж: 3 года 2 месяца

Сообщений: 906

Пост 05-Окт-2013 10:08 (спустя 16 минут)

[Цитировать]

Раздача восстановлена, серии переименованы))
Приятного просмотра!
[Профиль] [ЛС]

Klёпa ®

Стаж: 3 года 2 месяца

Сообщений: 906

Пост 11-Окт-2013 21:39 (спустя 6 дней)

[Цитировать]

Добавлена 7 серия! Приятного просмотра br
[Профиль] [ЛС]

dusy78

Стаж: 3 года 10 месяцев

Сообщений: 1005

Откуда: Россия

Пост 12-Окт-2013 00:29 (спустя 2 часа 49 минут)

[Цитировать]

Спасибо! br
[Профиль] [ЛС]

blaccyee

Стаж: 3 года 1 месяц

Сообщений: 1

Пост 08-Ноя-2013 03:06 (спустя 27 дней)

[Цитировать]

Скажите, а остальные серии будут озвучиваться и добавляться?
[Профиль] [ЛС]

Klёпa ®

Стаж: 3 года 2 месяца

Сообщений: 906

Пост 08-Ноя-2013 09:19 (спустя 6 часов)

[Цитировать]

blaccyee, конечно будут! Даже не думайте об обратном!)) Были небольшие затруднения, но сейчас 8я серия уже озвучена и 9я в работе. Так что дальше должно всё пойти быстрее.
[Профиль] [ЛС]

SandraF777

Стаж: 3 года 8 месяцев

Сообщений: 18

Пост 10-Ноя-2013 16:34 (спустя 2 дня 7 часов)

[Цитировать]

Быстрее бы продолжение! :)
[Профиль] [ЛС]

_Рузана_

Стаж: 3 года 9 месяцев

Сообщений: 23

Пост 11-Ноя-2013 18:14 (спустя 1 день 1 час)

[Цитировать]

где же продолжение....
[Профиль] [ЛС]

Klёпa ®

Стаж: 3 года 2 месяца

Сообщений: 906

Пост 12-Ноя-2013 18:43 (спустя 1 день)

[Цитировать]

SandraF777, _Рузана_, спокойствие, только спокойствие.)) Уже почти... bm
[Профиль] [ЛС]

Klёпa ®

Стаж: 3 года 2 месяца

Сообщений: 906

Пост 12-Ноя-2013 19:37 (спустя 54 минуты)

[Цитировать]

Добавлена 8 серия!! Приятного просмотра br
[Профиль] [ЛС]

Ланочка10_83

Стаж: 3 года 1 месяц

Сообщений: 131

Пост 13-Ноя-2013 04:09 (спустя 8 часов)

[Цитировать]

Спасибо!!! :)
[Профиль] [ЛС]

tenianghela

Стаж: 3 года 2 месяца

Сообщений: 2

Пост 14-Ноя-2013 15:02 (спустя 1 день 10 часов)

[Цитировать]

Спасибо огромное ))))
[Профиль] [ЛС]

nuranura

Стаж: 3 года 1 месяц

Сообщений: 142

Пост 14-Ноя-2013 16:28 (спустя 1 час 26 минут)

[Цитировать]

спасибо!!!!!!!!
[Профиль] [ЛС]

_Рузана_

Стаж: 3 года 9 месяцев

Сообщений: 23

Пост 22-Ноя-2013 14:47 (спустя 7 дней)

[Цитировать]

когда же продолжение
[Профиль] [ЛС]

Klёпa ®

Стаж: 3 года 2 месяца

Сообщений: 906

Пост 27-Ноя-2013 19:56 (спустя 5 дней)

[Цитировать]

Добавлены 9-10 серии!! bo
И у нас первый дубль)) Приятного просмотра!
[Профиль] [ЛС]
Показать сообщения:    
Ответить на тему

Текущее время: Сегодня 14:10

Часовой пояс: GMT



Вы не можете начинать темы
Вы не можете отвечать на сообщения
Вы не можете редактировать свои сообщения
Вы не можете удалять свои сообщения
Вы не можете голосовать в опросах
Вы не можете прикреплять файлы к сообщениям
Вы не можете скачивать файлы