Жалобы на работу трекера ! прошу сюда :)

Акула / Sangeo / Shark (Пак Чхан Хон) [20/20] [Rus(int)] [Корея, 2013, триллер, мелодрама, романтика, HDTVRip] [RAW] [450p]

Страницы :  1, 2, 3  След.

Ответить на тему
 
Автор Сообщение

balic ®

Стаж: 3 года 10 месяцев

Сообщений: 324

Пост 05-Окт-2013 14:17

[Цитировать]

Акула / Sangeo / Shark
Страна: Корея
Год выпуска: 2013
Жанр: триллер, мелодрама, романтика
Продолжительность: 20 серий
Неотключаемые субтитры: без хардсаба
Перевод: Одноголосый (закадровый) Екатерина Юрьева
СЭМПЛ http://multi-up.com/882744
Режиссер: Пак Чхан Хон
В ролях: Kim Nam-Gil, Son Ye-Jin, Ha Seok-Jin, Lee Ha-Nui, Jung In-Gi, Nam Bo-Ra, Lee Jae-Gu, Lee Si-Yeon, Lee Jeong-Kil, Kim Kyu-Cheol, Oh Hyun-Kyung, Jung Kyung-Soon, Park Won-Sang, Lee Soo-Hyuk, Jung Won-Joong, Kim Min-Sang-Описание: После того, как отец погиб на его глазах, Кан Ын Су (Ким Нам Гил) вынужден бежать из страны, чтобы самому остаться в живых.
В Японии он делает пластическую операцию и через несколько лет возвращается в Корею, чтобы отомстить за свою семью.
Кан Ын Су сближается с дочерью главного преступника, с которой дружил еще в детстве, с намерением использовать её, чтобы отомстить....Но, постепенно понимает, что чувства, которые испытывал к ней когда- то, не исчезли с годами...
Перед главным героем встает выбор: вернуть наследство своих родителей и отомстить или остаться с любимой женщиной, забыв о своем прошлом?
-
Доп.информация:
Субтитры предоставлены ФСГ "Bears"
Релиз от группы GREEN TEA
Оформление постера: Ольга Гринтиева
Качество видео: HDTV
Формат: AVI
Видео: 800x450 (16:9), 29.970 fps,H264 ~1 696 kbps avg, 0.139 bit/pixel
Аудио: 48 kHz, MPEG Layer 3, 2 ch, ~192.00 kbps avg Язык Русский (в составе контейнера)
Альтернативная раздача 1280х720
ОСТ к дораме Акула-Новости14.10 Добавлена 11 серия!22.10 Добавлена 12 серия!29.10 Добавлена 13 серия!22.11 Добавлена 15 серия!28.11 Добавлена 16 серия!02.12 Добавлена 17 серия!06.12 Добавлена 18 серия!09.12 Добавлена 19 серия!12.12 Добавлена 20 серия!-

Медиаинфо

General
Complete name : E:\[GREEN TEA] Акула\[green-tea.tv] Shark ep1.avi
Format : AVI
Format/Info : Audio Video Interleave
File size : 770 MiB
Duration : 1h 3mn
Overall bit rate : 1 696 Kbps
Writing application : VirtualDubMod 1.5.10.2 (build 2540/release)
Writing library : VirtualDubMod build 2540/release
Video
ID : 0
Format : AVC
Format/Info : Advanced Video Codec
Format profile : High@L5.1
Format settings, CABAC : Yes
Format settings, ReFrames : 4 frames
Codec ID : H264
Duration : 1h 3mn
Bit rate : 1 500 Kbps
Width : 800 pixels
Height : 450 pixels
Display aspect ratio : 16:9
Frame rate : 29.970 fps
Color space : YUV
Chroma subsampling : 4:2:0
Bit depth : 8 bits
Scan type : Progressive
Bits/(Pixel*Frame) : 0.139
Stream size : 677 MiB (88%)
Writing library : x264 core 116 r2057kMod 0ba8a9c
Encoding settings : cabac=1 / ref=4 / deblock=1:0:0 / analyse=0x3:0x13 / me=umh / subme=7 / psy=1 / fade_compensate=0.00 / psy_rd=1.00:0.00 / mixed_ref=1 / me_range=16 / chroma_me=1 / trellis=1 / 8x8dct=1 / cqm=0 / deadzone=21,11 / fast_pskip=1 / chroma_qp_offset=-2 / threads=4 / sliced_threads=1 / slices=4 / nr=0 / decimate=1 / interlaced=0 / bluray_compat=0 / constrained_intra=0 / bframes=0 / weightp=2 / keyint=250 / keyint_min=25 / scenecut=40 / intra_refresh=0 / rc=abr / mbtree=0 / bitrate=1500 / ratetol=1.0 / qcomp=0.60 / qpmin=10 / qpmax=51 / qpstep=4 / ip_ratio=1.40 / aq=1:1.00
Audio
ID : 1
Format : MPEG Audio
Format version : Version 1
Format profile : Layer 3
Mode : Joint stereo
Codec ID : 55
Codec ID/Hint : MP3
Duration : 1h 3mn
Bit rate mode : Constant
Bit rate : 192 Kbps
Channel(s) : 2 channels
Sampling rate : 48.0 KHz
Compression mode : Lossy
Stream size : 87.1 MiB (11%)
Alignment : Aligned on interleaves
Interleave, duration : 33 ms (1.00 video frame)
Interleave, preload duration : 504 ms

Скриншоты



Последний раз редактировалось: balic (2013-12-12 09:44), всего редактировалось 10 раз(а)
[Профиль] [ЛС]

Klёпa

Стаж: 3 года 2 месяца

Сообщений: 906

Пост 14-Окт-2013 21:23 (спустя 9 дней)

[Цитировать]

Спасибо! Очень ждала bo
[Профиль] [ЛС]

dusy78

Стаж: 3 года 10 месяцев

Сообщений: 1005

Откуда: Россия

Пост 23-Окт-2013 16:11 (спустя 8 дней)

[Цитировать]

12 серия!
[Профиль] [ЛС]

dusy78

Стаж: 3 года 10 месяцев

Сообщений: 1005

Откуда: Россия

Пост 30-Окт-2013 02:49 (спустя 6 дней)

[Цитировать]

Добавлена 13 серия!!! Приятного просмотра!
[Профиль] [ЛС]

Klёпa

Стаж: 3 года 2 месяца

Сообщений: 906

Пост 30-Окт-2013 19:02 (спустя 16 часов)

[Цитировать]

Спасибо! br
[Профиль] [ЛС]

Klёпa

Стаж: 3 года 2 месяца

Сообщений: 906

Пост 05-Ноя-2013 15:24 (спустя 5 дней)

[Цитировать]

И за 14-ю серию тоже спасибо)) bo
[Профиль] [ЛС]

Hencok

Стаж: 3 года 1 месяц

Сообщений: 18

Откуда: Киев

Пост 05-Ноя-2013 22:46 (спустя 7 часов)

[Цитировать]

спасибо!
[Профиль] [ЛС]

balic ®

Стаж: 3 года 10 месяцев

Сообщений: 324

Пост 22-Ноя-2013 16:59 (спустя 16 дней)

[Цитировать]

15 серия
[Профиль] [ЛС]

Klёпa

Стаж: 3 года 2 месяца

Сообщений: 906

Пост 22-Ноя-2013 23:42 (спустя 6 часов)

[Цитировать]

Спасибо! ax
[Профиль] [ЛС]

balic ®

Стаж: 3 года 10 месяцев

Сообщений: 324

Пост 28-Ноя-2013 12:44 (спустя 5 дней)

[Цитировать]

16 серия!
[Профиль] [ЛС]

balic ®

Стаж: 3 года 10 месяцев

Сообщений: 324

Пост 02-Дек-2013 18:29 (спустя 4 дня)

[Цитировать]

17 Серия
[Профиль] [ЛС]

Klёпa

Стаж: 3 года 2 месяца

Сообщений: 906

Пост 03-Дек-2013 17:12 (спустя 22 часа)

[Цитировать]

Спасибо за новую серию!
[Профиль] [ЛС]

limitana

Стаж: 3 года 10 месяцев

Сообщений: 153

Пост 04-Дек-2013 19:01 (спустя 1 день 1 час)

[Цитировать]

И от меня большущее спасибо!
[Профиль] [ЛС]

balic ®

Стаж: 3 года 10 месяцев

Сообщений: 324

Пост 06-Дек-2013 14:57 (спустя 1 день 19 часов)

[Цитировать]

Klёпa, limitana, спасибо) 18 серия!
[Профиль] [ЛС]

Klёпa

Стаж: 3 года 2 месяца

Сообщений: 906

Пост 07-Дек-2013 08:29 (спустя 17 часов)

[Цитировать]

Ура! Новая серия! Спасибо!! bo
[Профиль] [ЛС]
Показать сообщения:    
Ответить на тему

Текущее время: Сегодня 18:34

Часовой пояс: GMT



Вы не можете начинать темы
Вы не можете отвечать на сообщения
Вы не можете редактировать свои сообщения
Вы не можете удалять свои сообщения
Вы не можете голосовать в опросах
Вы не можете прикреплять файлы к сообщениям
Вы не можете скачивать файлы