Жалобы на работу трекера ! прошу сюда :)

Агентство знакомств "Сирано" / Агентство "Сирано" /Yeonaejojakdan: Shirano / Dating Agency Cyrano [16/16] (Кан Гён Хун) [2013 г., романтика, комедия, DTVRip] [RAW] [360p] DVO GREEN TEA

Страницы :  1, 2, 3  След.

Ответить на тему
 
Автор Сообщение

balic ®

Стаж: 3 года 10 месяцев

Сообщений: 324

Пост 05-Окт-2013 14:25

[Цитировать]

Агентство знакомств "Сирано" / Dating Agency Cyrano
Страна: Корея
Год выпуска: 2013
Жанр: Романтика, комедия
Продолжительность: 16 серий-Перевод: Двухголосый (закадровый) Екатерина Юрьева и Денис Кай
СЭМПЛ http://multi-up.com/879698-Режиссер: Кан Гён Хун
В ролях: Ли Чжон Хёк в роли Со Бён Хуна
Чхве Су Ён в роли Кон Мин Ён
Хон Чжон Хён в роли Му Чжина
Чо Юн У в роли А Рана
Ли Чхон Хи в роли Чха Сын Пё
Пэ Сон У в роли Мин Сика
Ким Мин Кё в роли Ён Даль
Ха Юн Чжу в роли Хе Ри
-
Описание: Команда агентства знакомств "Сирано" всегда готова протянуть руку помощи тем, кто испытывает затруднения в личной жизни.
Ни одно их "дело" не обходится без тщательно разработанного плана, дабы "приманить" или "поймать" объект страстной любви клиента.
Перевод описания: Октябрина-Доп.информация:
Субтитры предоставлены ФСГ "Мания"
Релиз от группы GREEN TEA
Координатор проекта Екатерина Амальфи
Работа со звуком Ольга Гринтиева
Оформление постера: Amoreoni, Михаил Золотов-Неотключаемые субтитры: без хардсаба
Качество видео: HDTVRip
Формат: AVI
Видео кодек: H264, XviD
Аудио кодек: MP3
Видео: 624x352, 1429 Кбит/с, 29.970 fps
Аудио: 48 kHz, 128 Кбит/с, 2 канала
Альтернативная раздача 1280х720
ОСТ к дораме Агентство знакомств "Сирано"

Медиаинфо

General
Complete name : E:\[GREEN TEA] Агентство знакомств Сирано\[GREEN TEA] Агентство знакомств Сирано ep1.avi
Format : AVI
Format/Info : Audio Video Interleave
File size : 544 MiB
Duration : 48mn 33s
Overall bit rate : 1 567 Kbps
Writing application : VirtualDubMod 1.5.10.2 (build 2540/release)
Writing library : VirtualDubMod build 2540/release
Video
ID : 0
Format : MPEG-4 Visual
Format profile : Advanced Simple@L5
Format settings, BVOP : 2
Format settings, QPel : No
Format settings, GMC : No warppoints
Format settings, Matrix : Default (H.263)
Muxing mode : Packed bitstream
Codec ID : XVID
Codec ID/Hint : XviD
Duration : 48mn 33s
Bit rate : 1 428 Kbps
Width : 624 pixels
Height : 352 pixels
Display aspect ratio : 16:9
Frame rate : 29.970 fps
Color space : YUV
Chroma subsampling : 4:2:0
Bit depth : 8 bits
Scan type : Progressive
Compression mode : Lossy
Bits/(Pixel*Frame) : 0.217
Stream size : 496 MiB (91%)
Writing library : XviD 58
Audio
ID : 1
Format : MPEG Audio
Format version : Version 1
Format profile : Layer 3
Mode : Joint stereo
Mode extension : MS Stereo
Codec ID : 55
Codec ID/Hint : MP3
Duration : 48mn 33s
Bit rate mode : Constant
Bit rate : 128 Kbps
Channel(s) : 2 channels
Sampling rate : 44.1 KHz
Compression mode : Lossy
Stream size : 44.5 MiB (8%)
Alignment : Split accross interleaves
Interleave, duration : 33 ms (1.00 video frame)
Interleave, preload duration : 500 ms

Скриншоты



Последний раз редактировалось: balic (2014-04-23 09:08), всего редактировалось 12 раз(а)
[Профиль] [ЛС]

dusy78

Стаж: 3 года 10 месяцев

Сообщений: 1005

Откуда: Россия

Пост 13-Окт-2013 18:49 (спустя 8 дней)

[Цитировать]

Добавлена 7 серия!!!
[Профиль] [ЛС]

elzanorge

Стаж: 3 года 10 месяцев

Сообщений: 22

Пост 16-Окт-2013 21:00 (спустя 3 дня)

[Цитировать]

спасибо!
[Профиль] [ЛС]

limitana

Стаж: 3 года 10 месяцев

Сообщений: 153

Пост 26-Окт-2013 13:43 (спустя 9 дней)

[Цитировать]

Спасибо!
[Профиль] [ЛС]

a1exander

Стаж: 3 года 1 месяц

Сообщений: 38

Пост 28-Окт-2013 19:23 (спустя 2 дня 5 часов)

[Цитировать]

классный сериал, смеялся от души))
[Профиль] [ЛС]

balic ®

Стаж: 3 года 10 месяцев

Сообщений: 324

Пост 18-Ноя-2013 18:44 (спустя 20 дней)

[Цитировать]

9 серия!
[Профиль] [ЛС]

Fridrih

Стаж: 3 года 10 месяцев

Сообщений: 51

Пост 19-Ноя-2013 07:46 (спустя 13 часов)

[Цитировать]

[GREEN TEA] Агентство знакомств Сирано ep9.avi 586.07 MB (614543360)
[GREEN TEA] Агентство знакомств Сирано ep99.avi 515.00 MB (540025540)
Предполагаю, что одна из серий лишняя

_________________
Спасибо алфавиту за предоставленные буквы.
Ps: Автор не несет никакой ответственности за возможный вред адресату или третьим лицам, нанесенный одним из использованных слов, либо их любым сочетанием
[Профиль] [ЛС]

a1exander

Стаж: 3 года 1 месяц

Сообщений: 38

Пост 19-Ноя-2013 15:35 (спустя 7 часов)

[Цитировать]

спасибо за 9 серию)))) это классно))))
[Профиль] [ЛС]

balic ®

Стаж: 3 года 10 месяцев

Сообщений: 324

Пост 19-Ноя-2013 16:32 (спустя 56 минут)

[Цитировать]

Fridrih, спасибо. переделываем
[Профиль] [ЛС]

Fridrih

Стаж: 3 года 10 месяцев

Сообщений: 51

Пост 19-Ноя-2013 17:46 (спустя 1 час 13 минут)

[Цитировать]

Fridrih, спасибо. переделываем
Не за что, это наоборот, вам всем спасиба за вашу pаботу

_________________
Спасибо алфавиту за предоставленные буквы.
Ps: Автор не несет никакой ответственности за возможный вред адресату или третьим лицам, нанесенный одним из использованных слов, либо их любым сочетанием
[Профиль] [ЛС]

balic ®

Стаж: 3 года 10 месяцев

Сообщений: 324

Пост 08-Дек-2013 08:20 (спустя 18 дней)

[Цитировать]

11 серия!
[Профиль] [ЛС]

a1exander

Стаж: 3 года 1 месяц

Сообщений: 38

Пост 08-Дек-2013 17:24 (спустя 9 часов)

[Цитировать]

спасибо, а то я уже соскучился по тыковке)))
[Профиль] [ЛС]

balic ®

Стаж: 3 года 10 месяцев

Сообщений: 324

Пост 31-Янв-2014 11:01 (спустя 1 месяц 22 дня)

[Цитировать]

12 серия!
[Профиль] [ЛС]

a1exander

Стаж: 3 года 1 месяц

Сообщений: 38

Пост 31-Янв-2014 14:53 (спустя 3 часа)

[Цитировать]

12 серия!
вот за это спасибо
[Профиль] [ЛС]

balic ®

Стаж: 3 года 10 месяцев

Сообщений: 324

Пост 02-Фев-2014 13:19 (спустя 1 день 22 часа)

[Цитировать]

13 серия!
[Профиль] [ЛС]
Показать сообщения:    
Ответить на тему

Текущее время: Сегодня 15:58

Часовой пояс: GMT



Вы не можете начинать темы
Вы не можете отвечать на сообщения
Вы не можете редактировать свои сообщения
Вы не можете удалять свои сообщения
Вы не можете голосовать в опросах
Вы не можете прикреплять файлы к сообщениям
Вы не можете скачивать файлы