Жалобы на работу трекера ! прошу сюда :)

Выбор Будущего / Выбор Ми Рэ / Выходи за него, если духу хватит / The Future Choice / Mi-Rae's Choice / Marry him if you dare (Квон Ге Хон) [16/16] [2013г., драма, романтика, HDTVRip] [360p] [RAW] MVO GREEN TEA

Страницы :  1, 2  След.

Ответить на тему
 
Автор Сообщение

Nas ®

Стаж: 3 года 10 месяцев

Сообщений: 372

Пост 25-Окт-2013 22:20

[Цитировать]

Выбор Будущего / Выбор Ми Рэ
-
Год выпуска: 2013
Страна: Южная Корея
Жанр: мелодрама, фантастика, путешествия во времени
Продолжительность: 16/16
-
Перевод: многоголосый закадровый
1-2 серии Ольга Гринтиева, Герман Конарев, Константин Романов, Анастасия Романова
с 3 серии: Ольга гринтиева, Константин Романов, Ярослав Мельник, Анастасия Романова
СЭМПЛ
-
Режиссер: Квон Ге Хон
В ролях:
Yoon Eun Hye в роли Na Mi Rae
Choi Myung Gil в роли Na Mi Rae (в будущем)
Lee Dong Gun в роли Kim Shin
Jung Yong Hwa в роли Park Se Joo
Han Chae Ah в роли Seo Yoo Kyung
Описание:
32-летняя женщина уже в том возрасте, когда слишком поздно начинать что-то новое или слишком рано что-то бросать. И вот однажды, к ней приходит она же сама из будущего, чтобы дать "сегодняшней" себе несколько советов насчет жизни и брака, чтобы сделать свою жизнь лучше.
-
Доп. информация:
Перевод: фсг "Мания" совмесно с фсг "Big Boss"
Перевод с 8 серии: фсг "Мания" и переводчики GREEN TEA: Эльза Нордж, Марина Торлин, Анна Окидзуке, Светлана Тора
Релиз группы GREEN TEA
Оформление постера: Анастасия Поливач
Тайминг и координация проекта: Екатерина Амальфи
Работа со звуком: Ольга Гринтиева

-
Качество: HDTV
Формат: AVI
Видео кодек: XviD
Аудио кодек: MP3
Видео: 624х352 pixels, 29.970 fps, 16:9, 1 450 Kbps
Аудио: 192 Kbps, 2 channels, 48.0 KHz
!!! Альтернативная раздача: 800x450 (АVI, H264) и 1280x720 (АVI, H264)
ОСТ к дораме Выбор Будущего

Медиаинфо

General
Complete name : C:\Users\то\Desktop\Новая папка\Озвучка\Выбор будущего\2 серия\Marry.Him.If.You.Dare.E02.131015.HDTV.XviD-LIMO.avi
Format : AVI
Format/Info : Audio Video Interleave
File size : 722 MiB
Duration : 1h 3mn
Overall bit rate : 1 592 Kbps
Movie name : №М·ЎАЗ ј±ЕГ.E02.131015.HDTV.XviD-LIMO
Writing application : VirtualDubMod 1.5.10.2 (build 2540/release)
Video
ID : 0
Format : MPEG-4 Visual
Format profile : Advanced Simple@L5
Format settings, BVOP : No
Format settings, QPel : No
Format settings, GMC : No warppoints
Format settings, Matrix : Default (MPEG)
Codec ID : XVID
Codec ID/Hint : XviD
Duration : 1h 3mn
Bit rate : 1 450 Kbps
Width : 624 pixels
Height : 352 pixels
Display aspect ratio : 16:9
Frame rate : 29.970 fps
Color space : YUV
Chroma subsampling : 4:2:0
Bit depth : 8 bits
Scan type : Progressive
Compression mode : Lossy
Bits/(Pixel*Frame) : 0.220
Stream size : 658 MiB (91%)
Writing library : XviD 1.2.1 (UTC 2008-12-04)
Audio
ID : 1
Format : MPEG Audio
Format version : Version 1
Format profile : Layer 3
Mode : Joint stereo
Codec ID : 55
Codec ID/Hint : MP3
Duration : 1h 3mn
Bit rate mode : Constant
Bit rate : 128 Kbps
Channel(s) : 2 channels
Sampling rate : 48.0 KHz
Compression mode : Lossy
Stream size : 58.0 MiB (8%)
Alignment : Aligned on interleaves
Interleave, duration : 24 ms (0.72 video frame)
Writing library : LAME3.98.2
Language : un

Скриншоты



Последний раз редактировалось: Nas (2013-12-22 19:49), всего редактировалось 11 раз(а)
[Профиль] [ЛС]

Nas ®

Стаж: 3 года 10 месяцев

Сообщений: 372

Пост 30-Окт-2013 20:23 (спустя 4 дня)

[Цитировать]

Добавлена 5 серия! Приятного просмотра!
[Профиль] [ЛС]

MoonUA

Стаж: 3 года 10 месяцев

Сообщений: 4

Пост 01-Ноя-2013 12:57 (спустя 1 день 16 часов)

[Цитировать]

огромное cпасибо за качественную озвучкуь)))
[Профиль] [ЛС]

Nas ®

Стаж: 3 года 10 месяцев

Сообщений: 372

Пост 06-Ноя-2013 19:48 (спустя 5 дней)

[Цитировать]

Добавлены 6 и 7 серии! Приятного просмотра!
[Профиль] [ЛС]

Nas ®

Стаж: 3 года 10 месяцев

Сообщений: 372

Пост 07-Ноя-2013 15:00 (спустя 19 часов)

[Цитировать]

Добавлена 8 серия! Приятного просмотра! bp
[Профиль] [ЛС]

ira-sf

Стаж: 3 года 1 месяц

Сообщений: 2

Пост 07-Ноя-2013 16:10 (спустя 1 час 9 минут)

[Цитировать]

пожалуйста станьте на раздачу кто-нибудь
[Профиль] [ЛС]

Nas ®

Стаж: 3 года 10 месяцев

Сообщений: 372

Пост 14-Ноя-2013 15:36 (спустя 6 дней)

[Цитировать]

Добавлена 9 серия!
[Профиль] [ЛС]

Nas ®

Стаж: 3 года 10 месяцев

Сообщений: 372

Пост 15-Ноя-2013 15:11 (спустя 23 часа)

[Цитировать]

Добавлена 10 серия! Приятного просмотра! bp
[Профиль] [ЛС]

nuranura

Стаж: 3 года 1 месяц

Сообщений: 142

Пост 22-Ноя-2013 12:49 (спустя 6 дней)

[Цитировать]

а сегодня буде 11 и 12 серии?
[Профиль] [ЛС]

Nas ®

Стаж: 3 года 10 месяцев

Сообщений: 372

Пост 22-Ноя-2013 13:44 (спустя 54 минуты)

[Цитировать]

Добавлены 11 и 12 серии!
[Профиль] [ЛС]

nuranura

Стаж: 3 года 1 месяц

Сообщений: 142

Пост 22-Ноя-2013 14:15 (спустя 31 минута)

[Цитировать]

СПАСИБО!!!!!
[Профиль] [ЛС]

nuranura

Стаж: 3 года 1 месяц

Сообщений: 142

Пост 30-Ноя-2013 13:21 (спустя 7 дней)

[Цитировать]

а когда продолжение?
[Профиль] [ЛС]

nuranura

Стаж: 3 года 1 месяц

Сообщений: 142

Пост 04-Дек-2013 16:20 (спустя 4 дня)

[Цитировать]

КОГДА?
[Профиль] [ЛС]

nuranura

Стаж: 3 года 1 месяц

Сообщений: 142

Пост 06-Дек-2013 17:37 (спустя 2 дня 1 час)

[Цитировать]

ну когда же продолжение??????????????????????
[Профиль] [ЛС]

Nas ®

Стаж: 3 года 10 месяцев

Сообщений: 372

Пост 08-Дек-2013 00:09 (спустя 1 день 6 часов)

[Цитировать]

nuranura, не надо так нервничать, на сайте везде указывалось, что один из дикторов заболел! Сейчас ему немного лучше, но и записывать ежедневно, мы тоже не можем!
[Профиль] [ЛС]
Показать сообщения:    
Ответить на тему

Текущее время: Сегодня 09:37

Часовой пояс: GMT



Вы не можете начинать темы
Вы не можете отвечать на сообщения
Вы не можете редактировать свои сообщения
Вы не можете удалять свои сообщения
Вы не можете голосовать в опросах
Вы не можете прикреплять файлы к сообщениям
Вы не можете скачивать файлы