Жалобы на работу трекера ! прошу сюда :)

Полный дом / Full house [16/16] (Хё Мин Су) [2004 г., мелодрама, комедия, HDTVRip] [RAW] [480p] DVO GREEN TEA

Страницы :  1, 2, 3, 4, 5, 6  След.

Ответить на тему
 
Автор Сообщение

Nas ®

Стаж: 3 года 10 месяцев

Сообщений: 372

Пост 13-Ноя-2013 10:30

[Цитировать]

Полный дом / Full house
-
Год выпуска: 2004
Страна: Южная Корея
Жанр: Мелодрама, комедия
Продолжительность: 16/16-Перевод: Двухголосый (закадровый) Анастасия Романова и Игорь Николаенков-Режиссер: Хё Мин Су
В ролях: Bi (Rain), Han Yun Jun, Kim Sun Su, Jang Yong, Doctor Lee, Seon-woo Eun-sook, Song Hye Kyo-Описание:
Ли Юн Дже - знаменитый актер. Тот ещё тип. Высокомерный, уверенный в себе, со всеми атрибутами звёздной болезни и плохого парня в одном флаконе. Но, у каждого Ахиллеса своя пята. Для Юн Дже это подруга детства - Кан Хе Вон. Видятся "друзья" почти каждый день, так как работает Хе Вон стилистом у вышеозначенной звЯзды. Но, невзирая на всю свою звёздность, Юн Дже не может набраться смелости признаться Хе Вон, так как знает, что та, в свою очередь, давно и безнадёжно влюблена в Ю Мин Хьюка, старшего друга детства Юн Дже и Хе Вон.
Хан Джи Юн - интернет новеллистка. Она живёт одна в "Полном Доме", который построил ее отец. Родители давно погибли и дом - это самое ценное, что осталось у Джи Юн, ведь все светлые воспоминания связаны именно с ним. Но однажды Джи Юн обманывают 2 друга ее детства (врагу таких друзей не пожелать). Под видом счастливого выигрыша в лотерею они отправляют Джи Юн в путешествие в Сайгон, а сами тем временем продают дом Юн Дже. Однако, наши герои познакомятся гораздо раньше, чем афера раскроется.-Доп. информация:
Перевод: фсг "Палата 666"
Релиз группы GREEN TEA
Работа со звуком: Ольга Гринтиева
-Качество: HDTVRip
Формат: AVI
Видео кодек:XviD
Аудио кодек: MP3
Видео: 640x480, 1217 Кбит/с, 29.970 fps
Аудио: 48.0 KHz, 192 Кбит/с, 2 канала
Ост к дораме: Полный дом

Медиаинфо

Общее
Формат : AVI
Формат/Информация : Audio Video Interleave
Размер файла : 700 Мбайт
Продолжительность : 1 ч. 10 м.
Общий поток : 1389 Кбит/сек
Программа кодирования : VirtualDubMod 1.5.10.1 (build 2439/release)
Библиотека кодирования : VirtualDubMod build 2439/release
Видео
Идентификатор : 0
Формат : MPEG-4 Visual
Профиль формата : Simple@L3
Параметр BVOP формата : 2
Параметр QPel формата : Нет
Параметр GMC формата : Без точки перехода
Параметр матрицы формата : Default (MPEG)
Режим смешивания : Сжатый битовый поток
Идентификатор кодека : XVID
Идентификатор кодека/Подсказка : XviD
Продолжительность : 1 ч. 10 м.
Битрейт : 1217 Кбит/сек
Ширина : 640 пикселей
Высота : 480 пикселей
Соотношение сторон : 4:3
Частота кадров : 29,970 кадров/сек
Цветовое пространство : YUV
Субдискретизация насыщенности : 4:2:0
Битовая глубина : 8 бит
Тип развёртки : Прогрессивная
Метод сжатия : С потерями
Бит/(Пиксели*Кадры) : 0.132
Размер потока : 613 Мбайт (88%)
Библиотека кодирования : XviD 1.0.1 (UTC 2004-06-05)
Аудио
Идентификатор : 1
Формат : MPEG Audio
Версия формата : Version 1
Профиль формата : Layer 3
Идентификатор кодека : 55
Идентификатор кодека/Подсказка : MP3
Продолжительность : 1 ч. 10 м.
Вид битрейта : Постоянный
Битрейт : 160 Кбит/сек
Каналы : 2 канала
Частота : 48,0 КГц
Метод сжатия : С потерями
Задержка видео : 336 мс.
Размер потока : 80,6 Мбайт (12%)
Выравнивание : Соединение по промежуткам
Продолжительность промежутка : 33 мс. (1,00 видеокадр)
Время предзагрузки промежутка : 504 мс.

Скриншоты



Последний раз редактировалось: Nas (2013-12-04 16:51), всего редактировалось 3 раз(а)
[Профиль] [ЛС]

j_777

Стаж: 3 года 9 месяцев

Сообщений: 302

Пост 13-Ноя-2013 11:40 (спустя 1 час 9 минут)

[Цитировать]

Ураааааааааааа!!!!!!!!!!!!!!!! Я так давно ждала, чтобы увидеть эту дорамку в озвучке. Большое вам спасибо!!!!!!
[Профиль] [ЛС]

nuranura

Стаж: 3 года 1 месяц

Сообщений: 142

Пост 13-Ноя-2013 11:50 (спустя 10 минут)

[Цитировать]

СПАСИБО!!!!!!!!! ОГРОМНОЕ СПАСИБО!!!!!!! Это одна из лучших дорам. Наконец-то в озвучке. Игра Bi (Rain) просто великолепна. ay ba
[Профиль] [ЛС]

limitana

Стаж: 3 года 10 месяцев

Сообщений: 153

Пост 13-Ноя-2013 13:43 (спустя 1 час 52 минуты)

[Цитировать]

Анастасия Романова и Игорь Николаенков- СПАСИБО!!! И Вам, Nas тоже огромное СПАСИБО!!!
Тем более с сабами от Палата666 ( у них перевод обычно очень качественный)!!! bi
[Профиль] [ЛС]

Nas ®

Стаж: 3 года 10 месяцев

Сообщений: 372

Пост 13-Ноя-2013 13:55 (спустя 11 минут)

[Цитировать]

Анастасия Романова И Вам, Nas
думаю это можно объединить
п.с: хочу поблагодарить, Ольгу Гринтиеву, за организацию самого проекта, и хороший звук!
[Профиль] [ЛС]

lanasvety

Стаж: 3 года 10 месяцев

Сообщений: 12

Пост 13-Ноя-2013 15:40 (спустя 1 час 45 минут)

[Цитировать]

Ура! Озвучка! Смотрели Полный дом 2, но это не то. Этот сериал намного интереснее нам показался. Спасибо большое! Сами как -то пытались озвучивать его, но так медленно и только по 10-20 мин. Так даже одну серию мы не доозвучили. Еще раз спасибо ;-)
[Профиль] [ЛС]

Альбина

Стаж: 3 года 1 месяц

Сообщений: 2

Пост 14-Ноя-2013 06:19 (спустя 14 часов)

[Цитировать]

когда же будут все серии? bi
[Профиль] [ЛС]

simka

Стаж: 3 года 10 месяцев

Сообщений: 94

Пост 14-Ноя-2013 09:42 (спустя 3 часа)

[Цитировать]

когда же будут все серии? bi
https://docs.google.com/spreadsheet/ccc?key=0Ak7wI9...kFuNXV0T2c#gid=0

_________________

.


Слава-Україна! Героям-Слава!
[Профиль] [ЛС]

rodqer

Стаж: 3 года 10 месяцев

Сообщений: 417

Откуда: кемерово

Пост 16-Ноя-2013 16:32 (спустя 2 дня 6 часов)

[Цитировать]

вау супер даже не ожидала , так давно хочу посмотреть с озвучкой , клёво спасибо вам огромное что взялись озвучивать , лёгкой и супер быстрой вам озвучки файтин
[Профиль] [ЛС]

pandora2177

Стаж: 3 года 10 месяцев

Сообщений: 368

Пост 18-Ноя-2013 12:50 (спустя 1 день 20 часов)

[Цитировать]

Добавлена 2 серия!
[Профиль] [ЛС]

limitana

Стаж: 3 года 10 месяцев

Сообщений: 153

Пост 18-Ноя-2013 15:46 (спустя 2 часа 55 минут)

[Цитировать]

Не удержалась, посмотрела две серии - очень-очень-очень понравилось! Одна из самых мною любимых дорам и так классно озвучена! Спасибо - вы супер!
[Профиль] [ЛС]

МадинаК

Стаж: 3 года 2 месяца

Сообщений: 9

Пост 22-Ноя-2013 11:45 (спустя 3 дня)

[Цитировать]

когда 3ю добавите?
[Профиль] [ЛС]

pandora2177

Стаж: 3 года 10 месяцев

Сообщений: 368

Пост 28-Ноя-2013 10:33 (спустя 5 дней)

[Цитировать]

Добавлены 3 и 4 серии!
[Профиль] [ЛС]

rodqer

Стаж: 3 года 10 месяцев

Сообщений: 417

Откуда: кемерово

Пост 28-Ноя-2013 10:48 (спустя 14 минут)

[Цитировать]

pandora2177, спасибо большое
[Профиль] [ЛС]

Ланочка10_83

Стаж: 3 года 1 месяц

Сообщений: 131

Пост 29-Ноя-2013 02:25 (спустя 15 часов)

[Цитировать]

Спасибки :)
[Профиль] [ЛС]
Показать сообщения:    
Ответить на тему

Текущее время: Сегодня 18:33

Часовой пояс: GMT



Вы не можете начинать темы
Вы не можете отвечать на сообщения
Вы не можете редактировать свои сообщения
Вы не можете удалять свои сообщения
Вы не можете голосовать в опросах
Вы не можете прикреплять файлы к сообщениям
Вы не можете скачивать файлы