Жалобы на работу трекера ! прошу сюда :)

Императрица Ки / Ki Hwanghoo / Qi Empress [51/51] [2013 г., история, романтика, экшн, политика, драма, HDTVRip] [RAW] [360р] DVO GREEN TEA

Страницы :  1, 2, 3, 4, 5, 6, 7, 8  След.

Ответить на тему
 
Автор Сообщение

Nas ®

Стаж: 3 года 10 месяцев

Сообщений: 372

Пост 15-Ноя-2013 13:30

[Цитировать]

Императрица Ки / Ki Hwanghoo / Qi Empress
-
Год выпуска: 2013-2014
Страна: Южная Корея
Жанр: История, романтика, экшн, политика, драма
Продолжительность: 1-51 (51)-Перевод: Двухголосый (закадровый) Марина Кириченко и Франк Цветков-В ролях:
Ха Чжи Вон в роли Ки Хван Ху, позднее - Императрица Ки (Олджэй-хутуг)
Чу Чжин Мо в роли Ван Ю, позже - король династии Корё Чон Хё
Чжи Чан Ук в роли Тха Хвана, позже - Император Хуэйцзун (Тогон-Тэмур)
Пэк Чжин Хи в роли Дана Шири
Ли Вон Чон в роли Док Мана
Ким Чон Хён в роли Дан Ки Се
Чха До Чжи в роли Тхаб Чжа Хэ
Ким Ён Хо в роли Пэк Ана
Чжин И Хан в роли Тал Тал
Чон Гук Хван в роли Ён Чхоля
Ким Со Хён в роли Императрицы Баян Хутуг
Чхве Му Сон в роли Пак Буль Хва
Чха Кван Су в роли Ко Ён Бо
Ли Мун Сик в роли Пан Сон У
Чон Ун Ин в роли Ом Бён Су
Квон О Чжун в роли Чхве Му Сона
Юн Ён Хён в роли Чом Пак И
Ли Чжэ Ён в роли Ван Го-Описание:
"Императрица Ки" - историческая сага с Ха Чжи Вон в роли Ки Хван Ху, которая родилась в Корее (Корё) и стала затем императрицей китайской династии Юань. Борьба с соперницей за сердце императора и борьба двух правителей за сердце героини - любовные треугольники в этой истории масштабны и преисполнены политики. Дорама раскроет неизвестные стороны мудрой правительницы Ки, показав ее сквозь призму красивых и болезненных историй любви.
Перевод описания: Харли
-
Доп. информация:
Перевод: фансаб-группа Мания
Релиз группы GREEN TEA
Оформление постера: Дина Фаткулина
Работа со звуком: Ольга Гринтиева и Ярослав Мельник-Качество: HDTVRip
Формат: AVI
Видео кодек: XviD
Аудио кодек: MP3
Видео: 624x352, ~1450 Кбит/с, 29.970 fps
Аудио: 48 kHz, 128-192 Кбит/с, 2 канала
Ост к дораме Императрица Ки
!!! Альтернативная раздача: 720p (AVI, H264)Добавлена 51 серия ( в двух вариантах окончания)! Приятного просмотра! Озвучка дорамы завершена!

Медиаинфо

Код:
General
Complete name                            : [GREEN TEA] Императрица Ки 01.avi
Format                                   : AVI
Format/Info                              : Audio Video Interleave
File size                                : 672 MiB
Duration                                 : 59mn 8s
Overall bit rate                         : 1 588 Kbps
Writing library                          : VirtualDub build 32842/release
Video
ID                                       : 0
Format                                   : MPEG-4 Visual
Format profile                           : Advanced Simple@L5
Format settings, BVOP                    : No
Format settings, QPel                    : No
Format settings, GMC                     : No warppoints
Format settings, Matrix                  : Default (MPEG)
Codec ID                                 : XVID
Codec ID/Hint                            : XviD
Duration                                 : 59mn 8s
Bit rate                                 : 1 449 Kbps
Width                                    : 624 pixels
Height                                   : 352 pixels
Display aspect ratio                     : 16:9
Frame rate                               : 29.970 fps
Color space                              : YUV
Chroma subsampling                       : 4:2:0
Bit depth                                : 8 bits
Scan type                                : Progressive
Compression mode                         : Lossy
Bits/(Pixel*Frame)                       : 0.220
Stream size                              : 613 MiB (91%)
Writing library                          : XviD 64
Audio
ID                                       : 1
Format                                   : MPEG Audio
Format version                           : Version 1
Format profile                           : Layer 3
Mode                                     : Joint stereo
Mode extension                           : MS Stereo
Codec ID                                 : 55
Codec ID/Hint                            : MP3
Duration                                 : 59mn 8s
Bit rate mode                            : Constant
Bit rate                                 : 128 Kbps
Channel(s)                               : 2 channels
Sampling rate                            : 48.0 KHz
Compression mode                         : Lossy
Stream size                              : 54.1 MiB (8%)
Alignment                                : Split accross interleaves
Interleave, duration                     : 33 ms (1.00 video frame)
Interleave, preload duration             : 500 ms

Скриншоты

[Профиль] [ЛС]

pandora2177

Стаж: 3 года 10 месяцев

Сообщений: 368

Пост 27-Ноя-2013 10:20 (спустя 11 дней)

[Цитировать]

Добавлена 3 серия!
[Профиль] [ЛС]

Mger9999

Стаж: 3 года

Сообщений: 2

Пост 28-Ноя-2013 14:18 (спустя 1 день 3 часа)

[Цитировать]

а по каким дням выходит серия?
[Профиль] [ЛС]

Maik40

Стаж: 3 года 1 месяц

Сообщений: 51

Пост 10-Дек-2013 17:13 (спустя 12 дней)

[Цитировать]

tak kagda ze pajavica na trekere 4aja serija?
Spasiba
[Профиль] [ЛС]

pandora2177

Стаж: 3 года 10 месяцев

Сообщений: 368

Пост 18-Дек-2013 16:32 (спустя 7 дней)

[Цитировать]

Добавлены 4-5 серии!
[Профиль] [ЛС]

pandora2177

Стаж: 3 года 10 месяцев

Сообщений: 368

Пост 28-Дек-2013 10:01 (спустя 9 дней)

[Цитировать]

Добавлены 6-7 серии!
[Профиль] [ЛС]

Spellhowler

Стаж: 3 года 10 месяцев

Сообщений: 258

Пост 03-Янв-2014 11:57 (спустя 6 дней)

[Цитировать]

Эта раздача будет обновляться после 14 января!
[Профиль] [ЛС]

Maik40

Стаж: 3 года 1 месяц

Сообщений: 51

Пост 23-Янв-2014 16:51 (спустя 20 дней)

[Цитировать]

Online 10 a skacivat tolko 7.?
[Профиль] [ЛС]

pandora2177

Стаж: 3 года 10 месяцев

Сообщений: 368

Пост 26-Янв-2014 17:57 (спустя 3 дня)

[Цитировать]

Добавлены 8-10 серии!
[Профиль] [ЛС]

Макар_ий

Стаж: 2 года 11 месяцев

Сообщений: 1

Пост 27-Янв-2014 05:38 (спустя 11 часов)

[Цитировать]

7 Серия нуждается в обрезке на половину - с середины идет повтор того-же видео потока
[Профиль] [ЛС]

pandora2177

Стаж: 3 года 10 месяцев

Сообщений: 368

Пост 27-Янв-2014 08:19 (спустя 2 часа 41 минута)

[Цитировать]

Макар_ий, спасибо за инфу, переделаю со след.серией.
[Профиль] [ЛС]

Maik40

Стаж: 3 года 1 месяц

Сообщений: 51

Пост 06-Мар-2014 15:35 (спустя 1 месяц 10 дней)

[Цитировать]

обновите торрент
[Профиль] [ЛС]

Maik40

Стаж: 3 года 1 месяц

Сообщений: 51

Пост 13-Мар-2014 15:15 (спустя 6 дней)

[Цитировать]

Скажыте, почему не обновляетца торрент? в чём дело? я вижу што здесь политика такая, мол смотрине через интернет. не толко етот торрент давно никто необновляет но и другие тоже, и даже некак ето некоментируют!
[Профиль] [ЛС]

pandora2177

Стаж: 3 года 10 месяцев

Сообщений: 368

Пост 13-Мар-2014 15:29 (спустя 14 минут)

[Цитировать]

Maik40, http://tracker.green-tea.tv/viewtopic.php?t=436 вторая раздача этого сериала. Данную не могу пока физически обновить. Сделаю сразу, как буду у компьютера с которого раздаю.
[Профиль] [ЛС]

Maik40

Стаж: 3 года 1 месяц

Сообщений: 51

Пост 13-Мар-2014 17:35 (спустя 2 часа 6 минут)

[Цитировать]

Спасибo Pandora.
[Профиль] [ЛС]
Показать сообщения:    
Ответить на тему

Текущее время: Сегодня 22:08

Часовой пояс: GMT



Вы не можете начинать темы
Вы не можете отвечать на сообщения
Вы не можете редактировать свои сообщения
Вы не можете удалять свои сообщения
Вы не можете голосовать в опросах
Вы не можете прикреплять файлы к сообщениям
Вы не можете скачивать файлы