Жалобы на работу трекера ! прошу сюда :)

Эпоха чувств / Время молодых / Эпоха страстей / Inspiring Generation / Gam-gyuk-shi-dae: too-shi-nui tan-saeng [24/24] [2014 г., драма, романтика, боевик, исторический, DTVRip] [RAW] [360p] DVO GREEN TEA

Страницы :  1, 2, 3  След.

Ответить на тему
 
Автор Сообщение

Nas ®

Стаж: 3 года 10 месяцев

Сообщений: 372

Пост 03-Фев-2014 21:43

[Цитировать]

Эпоха чувств
Время молодых / Эпоха страстей
Год выпуска: 2014
Страна: Южная Корея
Выпуск: с 15.01.2014 на KBS2
Жанр: Драма, романтика
Продолжительность: 24/24-Перевод: Двухголосый (закадровый) Анастасия Романова и Дмитрий Познанский
с 19 серии Анастасия Романова и Дмитрий Чепусов-Режиссер:Kim Jung-Kyu
Сценарий: Kim Jin-soo-I, Ko Yeong-oh , Lee Yoon-hwan
В ролях:
Kim Hyun-Joong - Shin Jung-Tae
Lim Soo-Hyang - Ga-Ya
Jin Se-Yeon - Yoon Ok-Ryeon
Kim Jae-wook - Kim Soo-ok
Kwak Dong-Yeon - Shin Jung-Tae (young); Joo Da-Young - Ga-Ya (young); Jo Dong-Hyeok - Shinichi; Han Jung-Soo - Shin Ma-Juk; Kim Sung-Oh - Jung Jae-Hwa; Kim Kap-Soo; Choi Il-Hwa; Kim Seo-Kyung - Mang-Chi; Jeong Ho-Bin; Park Chul-Min; Son Byung-Ho-Описание:
На основе манхвы Bang Hak-Ki "Inspiring Generation".
История о дружбе, любви и патриотизме молодых людей в 30-х годах ХХ века в Шанхае (Китай).
-
Доп. информация:
Перевод: фансаб-группа "Мания"
Релиз группы GREEN TEA
Оформление постера: Ольга Гринтиева
Редакция с 14 серии: Виктория Широкова
Работа со звуком: Ольга Гринтиева, Андрей Буреев, Константин Романов-Качество: HDTV
Формат: AVI
Видео кодек:XVID
Аудио кодек: MP3
Видео:624x352, 1450 Кбит/с, 29,970
Аудио:48000 Гц, 192 Кбит/с, 2 канала
!!! Альтернативная раздача 720р
ОСТ к дораме Эпоха чувств

Медиаинфо

Format : AVI
Format/Info : Audio Video Interleave
File size : 700 MiB
Duration : 59mn 14s
Overall bit rate : 1 653 Kbps
Writing application : VirtualDubMod 1.5.10.2 (build 2540/release)
Writing library : VirtualDubMod build 2540/release
Video
ID : 0
Format : MPEG-4 Visual
Format profile : Advanced Simple@L5
Format settings, BVOP : No
Format settings, QPel : No
Format settings, GMC : No warppoints
Format settings, Matrix : Default (MPEG)
Codec ID : XVID
Codec ID/Hint : XviD
Duration : 59mn 14s
Bit rate : 1 449 Kbps
Width : 624 pixels
Height : 352 pixels
Display aspect ratio : 16:9
Frame rate : 29.970 fps
Color space : YUV
Chroma subsampling : 4:2:0
Bit depth : 8 bits
Scan type : Progressive
Compression mode : Lossy
Bits/(Pixel*Frame) : 0.220
Stream size : 614 MiB (88%)
Writing library : XviD 64
Audio
ID : 1
Format : MPEG Audio
Format version : Version 1
Format profile : Layer 3
Mode : Joint stereo
Codec ID : 55
Codec ID/Hint : MP3
Duration : 59mn 14s
Bit rate mode : Constant
Bit rate : 192 Kbps
Channel(s) : 2 channels
Sampling rate : 48.0 KHz
Compression mode : Lossy
Stream size : 81.4 MiB (12%)
Alignment : Aligned on interleaves
Interleave, duration : 33 ms (1.00 video frame)
Interleave, preload duration : 504 ms

Скриншоты



Последний раз редактировалось: Nas (2014-04-24 16:23), всего редактировалось 8 раз(а)
[Профиль] [ЛС]

stich

Стаж: 3 года 1 месяц

Сообщений: 27

Пост 04-Фев-2014 05:31 (спустя 7 часов)

[Цитировать]

Спасибо мои родные,я вас люблю.Вы лучшие.
[Профиль] [ЛС]

gnjmik

Стаж: 3 года 1 месяц

Сообщений: 5

Пост 04-Фев-2014 07:58 (спустя 2 часа 26 минут)

[Цитировать]

Спасибочки Вам!!! bi
[Профиль] [ЛС]

nuranura

Стаж: 3 года 1 месяц

Сообщений: 142

Пост 04-Фев-2014 11:04 (спустя 3 часа)

[Цитировать]

УРА!!!УРА!!!!УРА!!!!! СПАСИБО ОГРОМНОЕ!!!!! ВЫ СУПЕР!!!!
[Профиль] [ЛС]

j_777

Стаж: 3 года 9 месяцев

Сообщений: 302

Пост 05-Фев-2014 02:53 (спустя 15 часов)

[Цитировать]

Спасибо вам огромное за такой замечательный сериал!!!!!!! Вы самые лучшие!!!!!!!!!!!!!!!!!!!!!!!!!!
[Профиль] [ЛС]

nuranura

Стаж: 3 года 1 месяц

Сообщений: 142

Пост 10-Фев-2014 08:49 (спустя 5 дней)

[Цитировать]

а когда продолжение?
[Профиль] [ЛС]

Nas ®

Стаж: 3 года 10 месяцев

Сообщений: 372

Пост 11-Фев-2014 23:23 (спустя 1 день 14 часов)

[Цитировать]

Добавлены с 5 по 8 серии! Приятного просмотра
[Профиль] [ЛС]

zolotoi44

Стаж: 2 года 9 месяцев

Сообщений: 5

Пост 12-Фев-2014 00:18 (спустя 55 минут)

[Цитировать]

Хороший сериал!!!!!!
[Профиль] [ЛС]

zolotoi44

Стаж: 2 года 9 месяцев

Сообщений: 5

Пост 12-Фев-2014 00:44 (спустя 25 минут)

[Цитировать]

помогите с раздачей!!!!
скорость просто нет
[Профиль] [ЛС]

zolotoi44

Стаж: 2 года 9 месяцев

Сообщений: 5

Пост 12-Фев-2014 00:56 (спустя 12 минут)

[Цитировать]

помогите с скоростью
[Профиль] [ЛС]

zolotoi44

Стаж: 2 года 9 месяцев

Сообщений: 5

Пост 17-Фев-2014 22:59 (спустя 5 дней)

[Цитировать]

а скоро продолжение ?????
[Профиль] [ЛС]

Nas ®

Стаж: 3 года 10 месяцев

Сообщений: 372

Пост 04-Мар-2014 00:28 (спустя 14 дней)

[Цитировать]

Добавлена 12 серия!
[Профиль] [ЛС]

j_777

Стаж: 3 года 9 месяцев

Сообщений: 302

Пост 04-Мар-2014 06:06 (спустя 5 часов)

[Цитировать]

О. меньший размерчик, спасибо вам!))))
[Профиль] [ЛС]

касталап

Стаж: 3 года

Сообщений: 38

Пост 06-Мар-2014 19:29 (спустя 2 дня 13 часов)

[Цитировать]

Спасибо )) вам
[Профиль] [ЛС]

limitana

Стаж: 3 года 10 месяцев

Сообщений: 153

Пост 10-Мар-2014 14:43 (спустя 3 дня)

[Цитировать]

Спасибо бооольшое!
[Профиль] [ЛС]
Показать сообщения:    
Ответить на тему

Текущее время: Сегодня 03:49

Часовой пояс: GMT



Вы не можете начинать темы
Вы не можете отвечать на сообщения
Вы не можете редактировать свои сообщения
Вы не можете удалять свои сообщения
Вы не можете голосовать в опросах
Вы не можете прикреплять файлы к сообщениям
Вы не можете скачивать файлы