Жалобы на работу трекера ! прошу сюда :)

Око дьявола / Последствия / Aftermath [5/5] (О Бо Хён) [2014 г., триллер, веб-драма, HDTVRip] [RAW] [480p] VO GREEN TEA

Ответить на тему
 
Автор Сообщение

balic ®

Стаж: 3 года 10 месяцев

Сообщений: 324

Пост 08-Мар-2014 14:16

[Цитировать]

Око дьявола/Последствия/Aftermath
Страна: Южная Корея
Год выпуска: 2014
Трансляция: с 06.01.2014
Жанр: Триллер, веб-драма
Продолжительность: 5 серий, 8 мин.-Перевод: Одноголосый (закадровый) (Екатерина Юрьева)
СЭМПЛ http://multi-up.com/957288-Режиссер: О Бо Хён.
В ролях:
Kim Dong Jun в роли Ан Тэ Юна.
Sun Joo Ah в роли Чу Хи Кён.
Kim Geun Hong в роди Ким Чжун Ку.
Kim Ri Ah в роли Ким На Ри.
Kim Min Seok в роли Чо Ин Хо.
-
Описание:
Тэ Юн - обычный школьник, но всё меняется, когда он падает с крыши и выходит из комы спустя 3 дня, вот тогда-то и начинается настоящий кошмар...

Доп. информация:

Субтитры предоставлены Dark Angel
Релиз от группы GREEN TEA
Работа со звуком Екатерина Юрьева
Оформление постера: Ольга Гринтиева-●Неотключаемые субтитры: Без хардсаба
●Качество видео: HDTVRip
●Формат: AVI
●Видео кодек: H264
●Аудио кодек: MP3
●Видео: 856х480, 1300 Кбит/с, 24.000 fps
●Аудио: 44.1 KHz, 128 кбит/с, 2 канала
ОСТ к дораме Око дьявола

Медиаинфо

General
Complete name : D:\[green-tea.tv] Око дьявола 1 сезон\[green-tea.tv] Око дьявола 1 сезон 1 серия.avi
Format : AVI
Format/Info : Audio Video Interleave
File size : 88.8 MiB
Duration : 8mn 30s
Overall bit rate : 1 460 Kbps
Writing application : VirtualDubMod 1.5.10.2 (build 2540/release)
Writing library : VirtualDubMod build 2540/release
Video
ID : 0
Format : xvid
Codec ID : xvid
Duration : 8mn 30s
Bit rate : 1 323 Kbps
Width : 856 pixels
Height : 480 pixels
Display aspect ratio : 16:9
Frame rate : 24.000 fps
Bits/(Pixel*Frame) : 0.134
Stream size : 80.5 MiB (91%)
Audio
ID : 1
Format : MPEG Audio
Format version : Version 1
Format profile : Layer 3
Mode : Joint stereo
Mode extension : MS Stereo
Codec ID : 55
Codec ID/Hint : MP3
Duration : 8mn 30s
Bit rate mode : Constant
Bit rate : 128 Kbps
Channel(s) : 2 channels
Sampling rate : 44.1 KHz
Compression mode : Lossy
Stream size : 7.79 MiB (9%)
Alignment : Split accross interleaves
Interleave, duration : 42 ms (1.00 video frame)
Interleave, preload duration : 500 ms

Скриншоты



Последний раз редактировалось: balic (2014-03-11 09:42), всего редактировалось 3 раз(а)
[Профиль] [ЛС]

rodqer

Стаж: 3 года 10 месяцев

Сообщений: 417

Откуда: кемерово

Пост 09-Мар-2014 11:05 (спустя 20 часов)

[Цитировать]

спасибо большое)))
[Профиль] [ЛС]

balic ®

Стаж: 3 года 10 месяцев

Сообщений: 324

Пост 10-Мар-2014 07:36 (спустя 20 часов)

[Цитировать]

добавлены 2-5 серии!
[Профиль] [ЛС]

Inessa

Стаж: 3 года 9 месяцев

Сообщений: 40

Пост 10-Мар-2014 08:35 (спустя 58 минут)

[Цитировать]

спасибо большое)
[Профиль] [ЛС]

rodqer

Стаж: 3 года 10 месяцев

Сообщений: 417

Откуда: кемерово

Пост 10-Мар-2014 11:26 (спустя 2 часа 51 минута)

[Цитировать]

с завершением спасибо))
[Профиль] [ЛС]

Xiah

Стаж: 2 года 9 месяцев

Сообщений: 1

Пост 10-Мар-2014 12:45 (спустя 1 час 18 минут)

[Цитировать]

Спасибо :)
[Профиль] [ЛС]

Megumi

Стаж: 2 года 9 месяцев

Сообщений: 1

Откуда: Сергиев Посад

Пост 13-Мар-2014 16:34 (спустя 3 дня)

[Цитировать]

спасиб)
[Профиль] [ЛС]

катерина

Стаж: 3 года 2 месяца

Сообщений: 12

Пост 17-Мар-2014 15:11 (спустя 3 дня)

[Цитировать]

Спасибо Екатерине Юрьевой за хорошую озвучку.
[Профиль] [ЛС]

Frelon

Стаж: 2 года 1 месяц

Сообщений: 2

Пост 05-Июл-2015 09:48 (спустя 1 год 3 месяца)

[Цитировать]

дайте скорости, пожалуйста
[Профиль] [ЛС]

Ная

Стаж: 2 года 7 месяцев

Сообщений: 207

Откуда: Россия

Пост 10-Авг-2016 13:20 (спустя 1 год 1 месяц)

[Цитировать]

Хороший мини-сериал!
Немного скучноватый.
Большое спасибо Екатерине Юрьевой за отличную озвучку и всем кто работал над мини-сериалом!
[Профиль] [ЛС]
Показать сообщения:    
Ответить на тему

Текущее время: Сегодня 04:07

Часовой пояс: GMT



Вы не можете начинать темы
Вы не можете отвечать на сообщения
Вы не можете редактировать свои сообщения
Вы не можете удалять свои сообщения
Вы не можете голосовать в опросах
Вы не можете прикреплять файлы к сообщениям
Вы не можете скачивать файлы