Жалобы на работу трекера ! прошу сюда :)

Око дьявола 2 / Последствия2 / Aftermath 2 (О Бо Хён) [6/6] [2014 г., триллер, веб-драма, HDTVRip] [RAW] [480p] VO GREEN TEA

Ответить на тему
 
Автор Сообщение

balic ®

Стаж: 3 года 10 месяцев

Сообщений: 324

Пост 11-Мар-2014 09:54

[Цитировать]

Око дьявола 2/Последствия 2/Aftermath 2
Страна: Южная Корея
Год выпуска: 2014
Трансляция: с 06.01.2014
Жанр: Триллер, веб-драма
Продолжительность: 6 серий, 8 мин.-Перевод: Одноголосый (закадровый) (Екатерина Юрьева)
СЭМПЛ http://multi-up.com/957288-Режиссер: О Бо Хён.
В ролях:
Kim Dong Jun в роли Ан Тэ Юна.
Sun Joo Ah в роли Чу Хи Кён.
Kim Geun Hong в роди Ким Чжун Ку.
Kim Ri Ah в роли Ким На Ри.
Kim Min Seok в роли Чо Ин Хо.
-
Описание:
Тэ Юн - обычный школьник, но всё меняется, когда он падает с крыши и выходит из комы спустя 3 дня, вот тогда-то и начинается настоящий кошмар...Второй сезон.
-Доп. информация:
Субтитры предоставлены Dark Angel (1-5 серии)
6 серия - Фансаб-группа "NONAaRA?"
Релиз от группы GREEN TEA
Работа со звуком Екатерина Юрьева
Оформление постера: Елена Горборукова-●Неотключаемые субтитры: Без хардсаба.
●Качество видео: HDTVRip
●Формат: AVI
●Видео кодек: H264
●Аудио кодек: MP3
●Видео: 960х540, 535 Кбит/с, 24.000 fps
●Аудио: 44.1 KHz, 192 кбит/с, 2 канала
ОСТ к дораме Око дьявола 2

Медиаинфо

General
Complete name : D:\[green-tea.tv] Око дьявола 2 сезон\[green-tea.tv] Око дьявола 2 сезон 1 серия.avi
Format : AVI
Format/Info : Audio Video Interleave
File size : 58.2 MiB
Duration : 9mn 56s
Overall bit rate : 819 Kbps
Writing application : Lavf52.93.0
Video
ID : 0
Format : AVC
Format/Info : Advanced Video Codec
Format profile : Main@L3.1
Format settings, CABAC : Yes
Format settings, ReFrames : 1 frame
Codec ID : H264
Duration : 9mn 56s
Bit rate : 678 Kbps
Nominal bit rate : 629 Kbps
Width : 960 pixels
Height : 540 pixels
Display aspect ratio : 16:9
Frame rate mode : Variable
Frame rate : 24.000 fps
Color space : YUV
Chroma subsampling : 4:2:0
Bit depth : 8 bits
Scan type : Progressive
Bits/(Pixel*Frame) : 0.055
Stream size : 48.2 MiB (83%)
Writing library : x264 core 129
Encoding settings : cabac=1 / ref=1 / deblock=1:0:0 / analyse=0x1:0x131 / me=dia / subme=2 / psy=1 / psy_rd=1.00:0.00 / mixed_ref=0 / me_range=16 / chroma_me=1 / trellis=0 / 8x8dct=0 / cqm=0 / deadzone=21,11 / fast_pskip=1 / chroma_qp_offset=0 / threads=4 / lookahead_threads=1 / sliced_threads=0 / nr=0 / decimate=1 / interlaced=0 / bluray_compat=0 / constrained_intra=0 / bframes=0 / weightp=2 / keyint=250 / keyint_min=25 / scenecut=40 / intra_refresh=0 / rc_lookahead=40 / rc=abr / mbtree=1 / bitrate=629 / ratetol=1.0 / qcomp=0.60 / qpmin=10 / qpmax=51 / qpstep=4 / ip_ratio=1.41 / aq=1:1.00
Audio
ID : 1
Format : MPEG Audio
Format version : Version 1
Format profile : Layer 3
Mode : Joint stereo
Mode extension : MS Stereo
Codec ID : 55
Codec ID/Hint : MP3
Duration : 9mn 56s
Bit rate mode : Constant
Bit rate : 128 Kbps
Channel(s) : 2 channels
Sampling rate : 44.1 KHz
Compression mode : Lossy
Stream size : 9.09 MiB (16%)
Alignment : Aligned on interleaves
Interleave, duration : 26 ms (0.63 video frame)
Interleave, preload duration : 26 ms

Скриншоты



Последний раз редактировалось: balic (2014-03-11 16:44), всего редактировалось 1 раз
[Профиль] [ЛС]

Inessa

Стаж: 3 года 9 месяцев

Сообщений: 40

Пост 11-Мар-2014 16:06 (спустя 6 часов)

[Цитировать]

Спасибо
[Профиль] [ЛС]

Nospamws

Стаж: 3 года 10 месяцев

Сообщений: 17

Пост 12-Мар-2014 23:41 (спустя 1 день 7 часов)

[Цитировать]

Штука ни че так но очень короткая...
[Профиль] [ЛС]

катерина

Стаж: 3 года 1 месяц

Сообщений: 12

Пост 13-Мар-2014 12:03 (спустя 12 часов)

[Цитировать]

Спасибо!!!
[Профиль] [ЛС]

Ная

Стаж: 2 года 7 месяцев

Сообщений: 206

Откуда: Россия

Пост 10-Авг-2016 13:21 (спустя 2 года 4 месяца)

[Цитировать]

Хороший мини-сериал!
Второй сезон немного динамичнее первого.
Большое спасибо Екатерине Юрьевой за отличную озвучку и всем кто работал над мини-сериалом!
[Профиль] [ЛС]
Показать сообщения:    
Ответить на тему

Текущее время: Сегодня 20:38

Часовой пояс: GMT



Вы не можете начинать темы
Вы не можете отвечать на сообщения
Вы не можете редактировать свои сообщения
Вы не можете удалять свои сообщения
Вы не можете голосовать в опросах
Вы не можете прикреплять файлы к сообщениям
Вы не можете скачивать файлы