Жалобы на работу трекера ! прошу сюда :)

Парочка скорой помощи / Emergency Couple [21/21] (Kim Cheol Kyu) [2014 г., комедия, романтика, медицина, HDTVRip] [RAW] [720p] DVO GREEN TEA

Страницы :  1, 2, 3  След.

Ответить на тему
 
Автор Сообщение

Klёпa ®

Стаж: 3 года 2 месяца

Сообщений: 906

Пост 23-Мар-2014 12:32

[Цитировать]

Парочка скорой помощи (Врачи неотложки / Неотложный роман)
Eunggeub Namnyeo / Emergency Couple (Emergency Man and Woman)


Год выпуска: 2014
Страна: Южная Корея
Жанр: Комедия, романтика, медицина
Продолжительность: 21 серия по ~60 мин.
-Перевод: Двухголосый (закадровый) - Елена Егорова, Иван Серёгин (1-9 серии), а также стажёры группы "Green Tea" Игорец Максимов (10-13 серии) и Денис Андэр (с 14 серии).
Сэмпл: http://yadi.sk/d/AzJhPm_LL4zUg-Режиссер: Kim Cheol Kyu
В ролях: Song Ji Hyo, Choi Jin Hyuk, Lee Sung Min (Clara), Choi Yeo Jin, Lee Pil Mo-Описание: Чжин Хи – диетолог, Чан Мин – студент медицинского ВУЗа. Однажды судьба сводит этих людей вместе и, несмотря на то, что семья Чан Мина против, они женятся. После женитьбы Чан Мин бросает интернатуру и устраивается на работу простым фармацевтом. Но их семейная жизнь не клеится: родственники мужа презирают невестку, да и муж со временем становится другим человеком. В конце концов, супруги разводятся. Позднее Чжин Хи поступает в медицинский ВУЗ и некоторое время спустя становится интерном. Чан Мин тем временем оканчивает ВУЗ и тоже становится интерном. В один прекрасный день судьба снова сводит их вместе в отделении экстренной медицинской помощи, в котором им теперь придётся работать бок о бок.-Доп. информация:
Перевод: ФСГ "Мания"
Координация и работа со звуком: Ольга Гринтиева
Оформление постера: Михаил Золотов-Качество: HDTVRip
Формат: AVI
Видео кодек: H.264
Аудио кодек: MP3
Видео: 1280x720, ~3000 Кбит/c, 29.97 fps
Аудио: 48.0 KHz, 192 Кбит/c, 2 канала
!!! Альтернативная раздача: 360p (AVI, XviD)
ОСТ к дораме Парочка скорой помощи05.11.2014 - добавлена 21 серия (заключительная).

MediaInfo

Код:
General
Complete name                            : [GREEN TEA] Парочка скорой помощи 01.avi
Format                                   : AVI
Format/Info                              : Audio Video Interleave
File size                                : 1.31 GiB
Duration                                 : 58mn 31s
Overall bit rate                         : 3 205 Kbps
Writing application                      : VirtualDubMod 1.5.10.2 (build 2540/release)
Writing library                          : VirtualDubMod build 2540/release
Video
ID                                       : 0
Format                                   : AVC
Format/Info                              : Advanced Video Codec
Format profile                           : High@L3.1
Format settings, CABAC                   : No
Format settings, ReFrames                : 1 frame
Codec ID                                 : H264
Duration                                 : 58mn 31s
Bit rate                                 : 2 916 Kbps
Width                                    : 1 280 pixels
Height                                   : 720 pixels
Display aspect ratio                     : 16:9
Frame rate                               : 29.970 fps
Color space                              : YUV
Chroma subsampling                       : 4:2:0
Bit depth                                : 8 bits
Scan type                                : Progressive
Bits/(Pixel*Frame)                       : 0.106
Stream size                              : 1.23 GiB (94%)
Writing library                          : x264 core 116 r2057kMod 0ba8a9c
Encoding settings                        : cabac=0 / ref=1 / deblock=1:0:0 / analyse=0x3:0x13 / me=umh / subme=7 / psy=1 / fade_compensate=0.00 / psy_rd=1.00:0.00 / mixed_ref=0 / me_range=16 / chroma_me=1 / trellis=1 / 8x8dct=1 / cqm=0 / deadzone=21,11 / fast_pskip=1 / chroma_qp_offset=-2 / threads=4 / sliced_threads=1 / slices=4 / nr=0 / decimate=1 / interlaced=0 / bluray_compat=0 / constrained_intra=0 / bframes=0 / weightp=2 / keyint=250 / keyint_min=25 / scenecut=40 / intra_refresh=0 / rc=abr / mbtree=0 / bitrate=2916 / ratetol=1.0 / qcomp=0.60 / qpmin=10 / qpmax=51 / qpstep=4 / ip_ratio=1.40 / aq=1:1.00
Audio
ID                                       : 1
Format                                   : MPEG Audio
Format version                           : Version 1
Format profile                           : Layer 3
Mode                                     : Joint stereo
Codec ID                                 : 55
Codec ID/Hint                            : MP3
Duration                                 : 58mn 31s
Bit rate mode                            : Constant
Bit rate                                 : 192 Kbps
Channel(s)                               : 2 channels
Sampling rate                            : 48.0 KHz
Compression mode                         : Lossy
Stream size                              : 80.4 MiB (6%)
Alignment                                : Aligned on interleaves
Interleave, duration                     : 33 ms (1.00 video frame)
Interleave, preload duration             : 504 ms

Скриншоты



Последний раз редактировалось: Klёпa (2014-11-05 12:04), всего редактировалось 31 раз(а)
[Профиль] [ЛС]

ONOR-IL

Стаж: 3 года 2 месяца

Сообщений: 12

Пост 23-Мар-2014 15:06 (спустя 2 часа 34 минуты)

[Цитировать]

ВАУУУ!!! bp Просто обожаю Джи Хё!!! Она такая классная в Беглецах bi И Джин Хек тоже крут!!! ba ay Огромное КУМАО, что взялись за озвучку такой чумавой дорамы!!! aa ФАЙТИН!!! bi
[Профиль] [ЛС]

E2072

Стаж: 3 года 2 месяца

Сообщений: 120

Пост 23-Мар-2014 15:53 (спустя 47 минут)

[Цитировать]

Огромное спасибо за эту дораму!!!
[Профиль] [ЛС]

gnjmik

Стаж: 3 года 2 месяца

Сообщений: 5

Пост 23-Мар-2014 17:08 (спустя 1 час 14 минут)

[Цитировать]

Спасибочки!!!!! bi
[Профиль] [ЛС]

Константин Романов

Стаж: 3 года 2 месяца

Сообщений: 125

Пост 24-Мар-2014 14:29 (спустя 21 час)

[Цитировать]

Добавлена вторая серия!
[Профиль] [ЛС]

limitana

Стаж: 3 года 10 месяцев

Сообщений: 153

Пост 24-Мар-2014 17:19 (спустя 2 часа 49 минут)

[Цитировать]

Как же мне нравится эта дорамка!!!! СПАСИБО вам огромное!!!!!!!!!!
[Профиль] [ЛС]

Dirbs

Стаж: 3 года 2 месяца

Сообщений: 88

Пост 24-Мар-2014 18:16 (спустя 56 минут)

[Цитировать]

Мне было так лень её в сабах смотреть, а в озвучке можно и посмеяться. Очень веселая дорамка))

_________________
Я та-а-к быстро вспомнил о чем забыл, что сразу забыл о чем вспомнил ^_^
[Профиль] [ЛС]

Klёпa ®

Стаж: 3 года 2 месяца

Сообщений: 906

Пост 29-Мар-2014 11:42 (спустя 4 дня)

[Цитировать]

Добавлена 3 серия!
[Профиль] [ЛС]

Klёпa ®

Стаж: 3 года 2 месяца

Сообщений: 906

Пост 31-Мар-2014 21:30 (спустя 2 дня 9 часов)

[Цитировать]

Добавлена 4 серия!
[Профиль] [ЛС]

Klёпa ®

Стаж: 3 года 2 месяца

Сообщений: 906

Пост 07-Апр-2014 16:57 (спустя 6 дней)

[Цитировать]

Добавлена 5 серия!
[Профиль] [ЛС]

Klёпa ®

Стаж: 3 года 2 месяца

Сообщений: 906

Пост 12-Апр-2014 10:31 (спустя 4 дня)

[Цитировать]

Добавлена 6 серия!
[Профиль] [ЛС]

Klёпa ®

Стаж: 3 года 2 месяца

Сообщений: 906

Пост 18-Апр-2014 23:20 (спустя 6 дней)

[Цитировать]

Добавлена 7 серия!
[Профиль] [ЛС]

Klёпa ®

Стаж: 3 года 2 месяца

Сообщений: 906

Пост 21-Апр-2014 20:41 (спустя 2 дня 21 час)

[Цитировать]

Добавлена 8 серия!
[Профиль] [ЛС]

Gadriel

Стаж: 2 года 7 месяцев

Сообщений: 1

Пост 04-Май-2014 10:30 (спустя 12 дней)

[Цитировать]

Почему дальше не добавляете?
[Профиль] [ЛС]

Klёпa ®

Стаж: 3 года 2 месяца

Сообщений: 906

Пост 04-Май-2014 13:06 (спустя 2 часа 36 минут)

[Цитировать]

Gadriel, серии выкладываются по мере их озвучки.
О состоянии любого интересующего Вас проекта Вы всегда можете посмотреть в "Таблице проектов", ссылка на которую размещена на главной странице трекера слева

Картинка для наглядности))

[Профиль] [ЛС]
Показать сообщения:    
Ответить на тему

Текущее время: Сегодня 22:07

Часовой пояс: GMT



Вы не можете начинать темы
Вы не можете отвечать на сообщения
Вы не можете редактировать свои сообщения
Вы не можете удалять свои сообщения
Вы не можете голосовать в опросах
Вы не можете прикреплять файлы к сообщениям
Вы не можете скачивать файлы