Жалобы на работу трекера ! прошу сюда :)

Мэрия / Городская администрация / The City Hall [20/20] (Шин У Чхоль) [2009 г., комедия, политика, романтика, DTVRip] [RAW] [360p] DVO GREEN TEA

Страницы :  1, 2, 3  След.

Ответить на тему
 
Автор Сообщение

Klёпa ®

Стаж: 3 года 2 месяца

Сообщений: 906

Пост 23-Мар-2014 21:23

[Цитировать]

Мэрия / Городская администрация
The City Hall / Siti Hol
Год выпуска: 2009
Страна: Южная Корея
Жанр: Комедия, политика, романтика
Продолжительность: 20 серий по ~60 мин.-Перевод: Двухголосый (закадровый) - Ольга Гринтиева и Константин Романов
С 3 серии детские партии озвучивает: Фёдор Непоседов
Семпл: http://yadi.sk/d/8G5nUKsPL5jqV-Режиссер: Шин У Чхоль
В ролях: Чха Сын Вон ("Афина: Богиня войны", "Нереальная любовь"), Ким Сон А ("Меня зовут Ким Сам Сун", «Когда наступает ночь»), Ли Чжун Хёк, Ли Хюн Чхоль, Чху Сан Ми-Описание: Честная и добродушная Шин Ми-Рэ вечно попадает во всякие истории благодаря своей привычке "совать нос в чужие дела". Ко всему прочему приходится ей уже 7 год подряд работать в мэрии маленького городка-деревеньки Инчу на самой низшей должности без всяких надежд на продвижение. Считается она секретарем, но фактически в ее обязанности входит в основном варить кофе. В добавок она искренне верит, что против ее обаяния ни в силах устоять ни один мужчина, из-за чего постоянно попадает в какие-нибудь конфузные и комичные ситуации, которые сама же и создаёт. Чо-Гук - "красивый, высокий, богатый - "мужчина ренессанса", как его называют женщины, поставил перед собой цель ни больше, ни меньше стать президентом Кореи, чего упорно и добивается. Человек он неглупый и талантливый, поэтому быстро поднимается по карьерной лестнице, что порождает множество слухов и домыслов, как именно это ему удается. По воле случая (и против своей) он попадает в этот городок на должность вице-мэра. И разгорается борьба за власть между мэром и вице-мэром. Итак, мэр хочет использовать гг, чтобы та следила за действиями Чо-Гука, а он в свою очередь, собирается использовать Ми-Рэ по-своему. А у Ми-Рэ и вовсе другие планы на самого Чо-Гука, хотя может она просто опять что-то навоображала. В прочем самому Чо-Гуку от этого не легче. Когда главные герои встречаются, начинается череда комичных и просто невообразимых ситуаций. Что победит - жажда власти или любовь? Кто станет мэром Инчу? А кто же будет следующим президентом Кореи?-Доп. информация:
Релиз группы "GREEN TEA"
Озвучивается при поддержке зрителей "GREEN TEA"
Перевод: Verkar & Aleksa-k
Тайминг: Разифат Асланова
Работа со звуком: Ольга Гринтиева
Оформление постера: Елена Горборукова-Качество: DTVRip
Формат: AVI
Видео кодек: XviD
Аудио кодек: MP3
Видео: 640x352, ~1300 Кбит/c, 29.97 fps
Аудио: 48.0 KHz, 128 Кбит/c, 2 канала
Альтернативная раздача: 720p (MKV, H264)
ОСТ к дораме Мэрия

MediaInfo

Код:
General
Complete name                            : [GREEN TEA] Мэрия_E01.avi
Format                                   : AVI
Format/Info                              : Audio Video Interleave
File size                                : 629 MiB
Duration                                 : 1h 3mn
Overall bit rate                         : 1 381 Kbps
Writing application                      : VirtualDubMod 1.5.10.2 (build 2542/release)
Writing library                          : VirtualDubMod build 2542/release
Video
ID                                       : 0
Format                                   : MPEG-4 Visual
Format profile                           : Advanced Simple@L5
Format settings, BVOP                    : 2
Format settings, QPel                    : No
Format settings, GMC                     : No warppoints
Format settings, Matrix                  : Default (MPEG)
Codec ID                                 : XVID
Codec ID/Hint                            : XviD
Duration                                 : 1h 3mn
Bit rate                                 : 1 242 Kbps
Width                                    : 640 pixels
Height                                   : 352 pixels
Display aspect ratio                     : 16:9
Frame rate                               : 29.970 fps
Color space                              : YUV
Chroma subsampling                       : 4:2:0
Bit depth                                : 8 bits
Scan type                                : Progressive
Compression mode                         : Lossy
Bits/(Pixel*Frame)                       : 0.184
Stream size                              : 566 MiB (90%)
Writing library                          : XviD 1.2.1 (UTC 2008-12-04)
Audio
ID                                       : 1
Format                                   : MPEG Audio
Format version                           : Version 1
Format profile                           : Layer 3
Mode                                     : Joint stereo
Mode extension                           : MS Stereo
Codec ID                                 : 55
Codec ID/Hint                            : MP3
Duration                                 : 1h 3mn
Bit rate mode                            : Constant
Bit rate                                 : 128 Kbps
Channel(s)                               : 2 channels
Sampling rate                            : 48.0 KHz
Compression mode                         : Lossy
Stream size                              : 58.3 MiB (9%)
Alignment                                : Aligned on interleaves
Interleave, duration                     : 33 ms (1.00 video frame)
Interleave, preload duration             : 504 ms

Скриншоты




Последний раз редактировалось: Klёпa (2014-10-12 13:09), всего редактировалось 17 раз(а)
[Профиль] [ЛС]

Klёпa ®

Стаж: 3 года 2 месяца

Сообщений: 906

Пост 13-Апр-2014 15:40 (спустя 20 дней)

[Цитировать]

Добавлена 3 серия!!
[Профиль] [ЛС]

j_777

Стаж: 3 года 9 месяцев

Сообщений: 302

Пост 14-Апр-2014 01:45 (спустя 10 часов)

[Цитировать]

Спасибо!!!
[Профиль] [ЛС]

Klёпa ®

Стаж: 3 года 2 месяца

Сообщений: 906

Пост 18-Апр-2014 21:43 (спустя 4 дня)

[Цитировать]

Добавлена 4 серия!!
[Профиль] [ЛС]

limitana

Стаж: 3 года 10 месяцев

Сообщений: 153

Пост 20-Апр-2014 14:48 (спустя 1 день 17 часов)

[Цитировать]

СПАСИБО!!!
[Профиль] [ЛС]

берёза

Стаж: 2 года 7 месяцев

Сообщений: 7

Пост 23-Апр-2014 14:18 (спустя 2 дня 23 часа)

[Цитировать]

100% позитива.Озвучка супер.very good. cb

_________________
Кто,кто?Берёза я!!!
[Профиль] [ЛС]

Klёпa ®

Стаж: 3 года 2 месяца

Сообщений: 906

Пост 26-Апр-2014 08:41 (спустя 2 дня 18 часов)

[Цитировать]

Добавлена 5 серия!!
[Профиль] [ЛС]

Klёпa ®

Стаж: 3 года 2 месяца

Сообщений: 906

Пост 23-Май-2014 14:22 (спустя 27 дней)

[Цитировать]

Добавлена 6 серия!!
[Профиль] [ЛС]

Klёпa ®

Стаж: 3 года 2 месяца

Сообщений: 906

Пост 17-Июн-2014 22:47 (спустя 25 дней)

[Цитировать]

Добавлена 7 серия!!
[Профиль] [ЛС]

limitana

Стаж: 3 года 10 месяцев

Сообщений: 153

Пост 24-Июн-2014 16:41 (спустя 6 дней)

[Цитировать]

СПАСИБО!!
[Профиль] [ЛС]

Klёпa ®

Стаж: 3 года 2 месяца

Сообщений: 906

Пост 26-Июн-2014 16:59 (спустя 2 дня)

[Цитировать]

Добавлена 8 серия!!
limitana, пожалуйста и приятного просмотра)))
[Профиль] [ЛС]

Klёпa ®

Стаж: 3 года 2 месяца

Сообщений: 906

Пост 28-Июн-2014 12:19 (спустя 1 день 19 часов)

[Цитировать]

Добавлена 9 серия!!
[Профиль] [ЛС]

altair_berserk

Стаж: 2 года 6 месяцев

Сообщений: 3

Пост 28-Июн-2014 17:24 (спустя 5 часов)

[Цитировать]

СПАСИБО!
[Профиль] [ЛС]

Klёпa ®

Стаж: 3 года 2 месяца

Сообщений: 906

Пост 28-Июн-2014 18:05 (спустя 41 минута)

[Цитировать]

altair_berserk, приятного просмотра)))
[Профиль] [ЛС]

Klёпa ®

Стаж: 3 года 2 месяца

Сообщений: 906

Пост 30-Июн-2014 18:15 (спустя 2 дня)

[Цитировать]

Добавлена 10 серия!!
[Профиль] [ЛС]
Показать сообщения:    
Ответить на тему

Текущее время: Сегодня 02:04

Часовой пояс: GMT



Вы не можете начинать темы
Вы не можете отвечать на сообщения
Вы не можете редактировать свои сообщения
Вы не можете удалять свои сообщения
Вы не можете голосовать в опросах
Вы не можете прикреплять файлы к сообщениям
Вы не можете скачивать файлы