Жалобы на работу трекера ! прошу сюда :)

Парочка скорой помощи / Emergency Couple [21/21] (Kim Cheol Kyu) [2014 г., комедия, романтика, медицина, DTVRip] [RAW] [360p] DVO GREEN TEA

Страницы :  1, 2, 3, 4  След.

Ответить на тему
 
Автор Сообщение

Klёпa ®

Стаж: 3 года 2 месяца

Сообщений: 906

Пост 23-Мар-2014 23:13

[Цитировать]

Парочка скорой помощи (Врачи неотложки / Неотложный роман)
Eunggeub Namnyeo / Emergency Couple (Emergency Man and Woman)

Год выпуска: 2014
Страна: Южная Корея
Жанр: Комедия, романтика, медицина
Продолжительность: 21 серия по ~ 60 мин.
-Перевод: Двухголосый (закадровый) - Елена Егорова, Иван Серёгин (1-9 серии), стажёры группы "Green Tea" Игорец Максимов (10-13 серии) и Денис Андэр (с 14 серии).
Сэмпл: http://yadi.sk/d/AzJhPm_LL4zUg
-Режиссер: Kim Cheol Kyu
В ролях: Song Ji Hyo, Choi Jin Hyuk, Lee Sung Min (Clara), Choi Yeo Jin, Lee Pil Mo-Описание: Чжин Хи – диетолог, Чан Мин – студент медицинского ВУЗа. Однажды судьба сводит этих людей вместе и, несмотря на то, что семья Чан Мина против, они женятся. После женитьбы Чан Мин бросает интернатуру и устраивается на работу простым фармацевтом. Но их семейная жизнь не клеится: родственники мужа презирают невестку, да и муж со временем становится другим человеком. В конце концов, супруги разводятся. Позднее Чжин Хи поступает в медицинский ВУЗ и некоторое время спустя становится интерном. Чан Мин тем временем оканчивает ВУЗ и тоже становится интерном. В один прекрасный день судьба снова сводит их вместе в отделении экстренной медицинской помощи, в котором им теперь придётся работать бок о бок.
-Доп. информация:
Перевод: ФСГ "Мания"
Координация и работа со звуком: Ольга Гринтиева
Оформление постера: Михаил Золотов
-Качество: DTVRip
Формат: AVI
Видео кодек: XviD
Аудио кодек: MP3
Видео: 624x352, ~1425 Кбит/с, 29.97 fps
Аудио: 48.0 КГц, 192 Кбит/с, 2 канала
!!! Альтернативная раздача: 720p (AVI, H264)
ОСТ к дораме Парочка скорой помощи05.11.2014 - добавлена 21 серия (заключительная).

MediaInfo

Код:
General
Complete name                            : [GREEN TEA] Парочка скорой помощи_E01.avi
Format                                   : AVI
Format/Info                              : Audio Video Interleave
File size                                : 682 MiB
Duration                                 : 58mn 31s
Overall bit rate                         : 1 629 Kbps
Writing application                      : VirtualDubMod 1.5.10.2 (build 2542/release)
Writing library                          : VirtualDubMod build 2542/release
Video
ID                                       : 0
Format                                   : MPEG-4 Visual
Format profile                           : Advanced Simple@L5
Format settings, BVOP                    : 2
Format settings, QPel                    : No
Format settings, GMC                     : No warppoints
Format settings, Matrix                  : Default (H.263)
Codec ID                                 : XVID
Codec ID/Hint                            : XviD
Duration                                 : 58mn 31s
Bit rate                                 : 1 425 Kbps
Width                                    : 624 pixels
Height                                   : 352 pixels
Display aspect ratio                     : 16:9
Frame rate                               : 29.970 fps
Color space                              : YUV
Chroma subsampling                       : 4:2:0
Bit depth                                : 8 bits
Scan type                                : Progressive
Compression mode                         : Lossy
Bits/(Pixel*Frame)                       : 0.217
Stream size                              : 597 MiB (87%)
Writing library                          : XviD 1.2.1 (UTC 2008-12-04)
Audio
ID                                       : 1
Format                                   : MPEG Audio
Format version                           : Version 1
Format profile                           : Layer 3
Mode                                     : Joint stereo
Codec ID                                 : 55
Codec ID/Hint                            : MP3
Duration                                 : 58mn 31s
Bit rate mode                            : Constant
Bit rate                                 : 192 Kbps
Channel(s)                               : 2 channels
Sampling rate                            : 48.0 KHz
Compression mode                         : Lossy
Stream size                              : 80.4 MiB (12%)
Alignment                                : Aligned on interleaves
Interleave, duration                     : 33 ms (1.00 video frame)
Interleave, preload duration             : 504 ms

Скриншоты




Последний раз редактировалось: Klёпa (2014-11-05 12:05), всего редактировалось 25 раз(а)
[Профиль] [ЛС]

Klёпa ®

Стаж: 3 года 2 месяца

Сообщений: 906

Пост 24-Мар-2014 19:07 (спустя 19 часов)

[Цитировать]

Добавлена 2 серия!
[Профиль] [ЛС]

Bibi1997

Стаж: 3 года 2 месяца

Сообщений: 7

Пост 28-Мар-2014 11:31 (спустя 3 дня)

[Цитировать]

спасибо за озвучку. удачи вам
[Профиль] [ЛС]

Klёпa ®

Стаж: 3 года 2 месяца

Сообщений: 906

Пост 29-Мар-2014 13:29 (спустя 1 день 1 час)

[Цитировать]

Добавлена 3 серия!
[Профиль] [ЛС]

limitana

Стаж: 3 года 10 месяцев

Сообщений: 153

Пост 29-Мар-2014 16:08 (спустя 2 часа 38 минут)

[Цитировать]

СПАСИБО!
[Профиль] [ЛС]

Klёпa ®

Стаж: 3 года 2 месяца

Сообщений: 906

Пост 31-Мар-2014 21:59 (спустя 2 дня 5 часов)

[Цитировать]

Добавлена 4 серия!
[Профиль] [ЛС]

limitana

Стаж: 3 года 10 месяцев

Сообщений: 153

Пост 03-Апр-2014 17:47 (спустя 2 дня 19 часов)

[Цитировать]

СПАСИБО!!!
[Профиль] [ЛС]

Klёпa ®

Стаж: 3 года 2 месяца

Сообщений: 906

Пост 07-Апр-2014 17:37 (спустя 3 дня)

[Цитировать]

Добавлена 5 серия!
[Профиль] [ЛС]

ALEX2013ALEX

Стаж: 2 года 8 месяцев

Сообщений: 1

Пост 08-Апр-2014 16:35 (спустя 22 часа)

[Цитировать]

Спасибо
[Профиль] [ЛС]

limitana

Стаж: 3 года 10 месяцев

Сообщений: 153

Пост 08-Апр-2014 17:12 (спустя 36 минут)

[Цитировать]

СПАСИБО!!!
[Профиль] [ЛС]

Klёпa ®

Стаж: 3 года 2 месяца

Сообщений: 906

Пост 12-Апр-2014 10:33 (спустя 3 дня)

[Цитировать]

Добавлена 6 серия!
[Профиль] [ЛС]

Mia2323

Стаж: 3 года

Сообщений: 71

Пост 12-Апр-2014 14:53 (спустя 4 часа)

[Цитировать]

СПАСИБО :))
[Профиль] [ЛС]

rodqer

Стаж: 3 года 10 месяцев

Сообщений: 417

Откуда: кемерово

Пост 12-Апр-2014 16:53 (спустя 1 час 59 минут)

[Цитировать]

спасибо ))))
[Профиль] [ЛС]

Klёпa ®

Стаж: 3 года 2 месяца

Сообщений: 906

Пост 18-Апр-2014 23:20 (спустя 6 дней)

[Цитировать]

Добавлена 7 серия!
[Профиль] [ЛС]

Mia2323

Стаж: 3 года

Сообщений: 71

Пост 19-Апр-2014 12:47 (спустя 13 часов)

[Цитировать]

Спасибо :))
[Профиль] [ЛС]
Показать сообщения:    
Ответить на тему

Текущее время: Сегодня 18:31

Часовой пояс: GMT



Вы не можете начинать темы
Вы не можете отвечать на сообщения
Вы не можете редактировать свои сообщения
Вы не можете удалять свои сообщения
Вы не можете голосовать в опросах
Вы не можете прикреплять файлы к сообщениям
Вы не можете скачивать файлы