Жалобы на работу трекера ! прошу сюда :)

Тайный роман / Тайное влечение / Milhwe / Secret Love Affair [16/16] (Ahn Pan Suk) [2014 г., романтика, мелодрама, музыкальный, HDTVRip] [RAW] [400p] DVO GREEN TEA

Страницы :  1, 2, 3, 4  След.

Ответить на тему
 
Автор Сообщение

Klёпa ®

Стаж: 3 года 2 месяца

Сообщений: 906

Пост 05-Апр-2014 23:28

[Цитировать]

Тайный роман (Тайное влечение)
Milhwe / Secret Love Affair

Год выпуска: 2014
Страна: Южная Корея
Жанр: Романтика, мелодрама, музыкальный
Продолжительность: 16 серий по ~ 60 мин.
Серий: 1-16 (16)-Озвучивание: Двухголосое (закадровое) Макс Коллапс и Людмила Линькова
Сэмпл: http://yadi.sk/d/m3whSPr-Ls9C2-Режиссер: Ан Пхан Сок (Ahn Pan Suk / 안판석)
В ролях:
Ким Хи Э (Kim Hee Ae / 김희애) - О Хэ Вон
Ю А Ин (Yoo Ah In / 유아인) - Ли Сон Чжэ
Пак Хёк Гвон (Park Hyuk Kwon / 박혁권) - Кан Чжун Хён
Сим Хе Чжин (Shim Hye Jin / 심혜진) - Хан Сок Сук
Ким Хе Ын (Kim Hye Eun / 김혜은) - Со Ён У
и др.-Описание: Если тебе уже 40 и ты боишься признать, что семейная жизнь не сложилась; что рядом находится человек, не разделяющий твои взгляды, не понимающий твои мечты, не поддерживающий твои начинания, а судьба сводит тебя с юношей, чья искренность и восхищение затрагивают твоё разуверенное сердце - что выберешь?
Останешься верной принципам? Испугаешься осуждения общества? Или позволишь себе любить? Ведь возможно, именно эту любовь ты ждала всю жизнь. Так стоит ли от неё отказываться?-Доп. информация:
Релиз группы GREEN TEA
Перевод: релиз-группа ClubFate
Работа со звуком: Людмила Линькова
Оформление постера: Елена Горборукова
Координация: Екатерина Амальфи-Качество: HDTVRip
Формат: AVI
Видео кодек: XviD
Аудио кодек: MP3
Видео: 720х400, ~1200 Кбит/с, 29.970 fps
Аудио: 48 kHz, 128 Кбит/c, 2 канала
ОСТ к дораме Тайный роман
!!! Альтернативная раздача: 720p (AVI, H264)21.05.2014 - добавлена 16 серия.

MediaInfo

Код:
General
Complete name                            : [GREEN TEA] Secret.Love.Affair_E01.avi
Format                                   : AVI
Format/Info                              : Audio Video Interleave
File size                                : 617 MiB
Duration                                 : 1h 4mn
Overall bit rate mode                    : Variable
Overall bit rate                         : 1 341 Kbps
Writing application                      : VirtualDubMod 1.5.10.3 | www.virtualdub-fr.org || (build 2550/release)
Writing library                          : VirtualDubMod build 2550/release
Video
ID                                       : 0
Format                                   : MPEG-4 Visual
Format profile                           : Advanced Simple@L5
Format settings, BVOP                    : 2
Format settings, QPel                    : No
Format settings, GMC                     : No warppoints
Format settings, Matrix                  : Default (MPEG)
Codec ID                                 : XVID
Codec ID/Hint                            : XviD
Duration                                 : 1h 4mn
Bit rate                                 : 1 199 Kbps
Width                                    : 720 pixels
Height                                   : 400 pixels
Display aspect ratio                     : 16:9
Frame rate                               : 29.970 fps
Color space                              : YUV
Chroma subsampling                       : 4:2:0
Bit depth                                : 8 bits
Scan type                                : Progressive
Compression mode                         : Lossy
Bits/(Pixel*Frame)                       : 0.139
Stream size                              : 552 MiB (89%)
Writing library                          : XviD 1.2.1 (UTC 2008-12-04)
Audio
ID                                       : 1
Format                                   : MPEG Audio
Format version                           : Version 1
Format profile                           : Layer 3
Mode                                     : Joint stereo
Mode extension                           : MS Stereo
Codec ID                                 : 55
Codec ID/Hint                            : MP3
Duration                                 : 1h 4mn
Bit rate mode                            : Constant
Bit rate                                 : 128 Kbps
Channel(s)                               : 2 channels
Sampling rate                            : 48.0 KHz
Compression mode                         : Lossy
Stream size                              : 58.9 MiB (10%)
Alignment                                : Aligned on interleaves
Interleave, duration                     : 24 ms (0.72 video frame)
Interleave, preload duration             : 486 ms

Скриншоты




Последний раз редактировалось: Klёпa (2014-05-21 18:53), всего редактировалось 19 раз(а)
[Профиль] [ЛС]

АлёнаВетерок

Стаж: 3 года 1 месяц

Сообщений: 5

Пост 06-Апр-2014 21:35 (спустя 22 часа)

[Цитировать]

Спасибо большое :)) Лёгкой озвучки
[Профиль] [ЛС]

rodqer

Стаж: 3 года 10 месяцев

Сообщений: 417

Откуда: кемерово

Пост 07-Апр-2014 05:20 (спустя 7 часов)

[Цитировать]

прикольно урааааааааааааа, спасибо вам , с началом и супер легкой озвучки вам )))))
[Профиль] [ЛС]

limitana

Стаж: 3 года 10 месяцев

Сообщений: 153

Пост 09-Апр-2014 10:25 (спустя 2 дня 5 часов)

[Цитировать]

СПАСИБО, легкой озвучки!
[Профиль] [ЛС]

Klёпa ®

Стаж: 3 года 2 месяца

Сообщений: 906

Пост 09-Апр-2014 18:35 (спустя 8 часов)

[Цитировать]

Добавлена 2 серия!
[Профиль] [ЛС]

Klёпa ®

Стаж: 3 года 2 месяца

Сообщений: 906

Пост 13-Апр-2014 14:02 (спустя 3 дня)

[Цитировать]

Добавлена 3 серия!
[Профиль] [ЛС]

Klёпa ®

Стаж: 3 года 2 месяца

Сообщений: 906

Пост 14-Апр-2014 17:18 (спустя 1 день 3 часа)

[Цитировать]

Добавлена 4 серия!
[Профиль] [ЛС]

trofi

Стаж: 3 года 10 месяцев

Сообщений: 39

Пост 14-Апр-2014 19:35 (спустя 2 часа 17 минут)

[Цитировать]

Вот это скорость !!!!!!!!!!
[Профиль] [ЛС]

Klёпa ®

Стаж: 3 года 2 месяца

Сообщений: 906

Пост 16-Апр-2014 04:49 (спустя 1 день 9 часов)

[Цитировать]

Добавлена 5 серия!
[Профиль] [ЛС]

cerlena

Стаж: 3 года

Сообщений: 25

Пост 16-Апр-2014 16:12 (спустя 11 часов)

[Цитировать]

Я еще и четвертую не досмотрела, уже пятая готова.
[Профиль] [ЛС]

Vistar

Стаж: 3 года 1 месяц

Сообщений: 9

Пост 16-Апр-2014 17:40 (спустя 1 час 28 минут)

[Цитировать]

Спасибо за то что серии сразу появляются на торренте))
[Профиль] [ЛС]

Klёпa ®

Стаж: 3 года 2 месяца

Сообщений: 906

Пост 18-Апр-2014 04:51 (спустя 1 день 11 часов)

[Цитировать]

Добавлена 6 серия!
[Профиль] [ЛС]

cerlena

Стаж: 3 года

Сообщений: 25

Пост 18-Апр-2014 16:15 (спустя 11 часов)

[Цитировать]

ВОТ ЭТО СКОРОСТЬ!!!!!
[Профиль] [ЛС]

choko_pak88

Стаж: 2 года 11 месяцев

Сообщений: 2

Пост 19-Апр-2014 10:40 (спустя 18 часов)

[Цитировать]

спасибо за озвучку этой дорамы Yoo Ah In <333 Удачи вам ;) Легкой озвучки Мы вас ЛЮБИМ!!!!
[Профиль] [ЛС]

Klёпa ®

Стаж: 3 года 2 месяца

Сообщений: 906

Пост 21-Апр-2014 21:17 (спустя 2 дня 10 часов)

[Цитировать]

Добавлена 7 серия!
[Профиль] [ЛС]
Показать сообщения:    
Ответить на тему

Текущее время: Сегодня 05:43

Часовой пояс: GMT



Вы не можете начинать темы
Вы не можете отвечать на сообщения
Вы не можете редактировать свои сообщения
Вы не можете удалять свои сообщения
Вы не можете голосовать в опросах
Вы не можете прикреплять файлы к сообщениям
Вы не можете скачивать файлы