Жалобы на работу трекера ! прошу сюда :)

Пронырливая дамочка / Коварная одинокая женщина / Angkeumhan Dolsingnyeo / Cunning single lady / Sly and single again [05/16] (Go Dong-Sun) [2014 г., комедия, романтика, HDTVRip] [RAW] [360p] DVO GREEN TEA

Страницы :  1, 2  След.

Ответить на тему
 
Автор Сообщение

Klёпa ®

Стаж: 3 года 2 месяца

Сообщений: 906

Пост 08-Апр-2014 22:06

[Цитировать]

Пронырливая дамочка (Коварная одинокая женщина)
Angkeumhan Dolsingnyeo / Cunning single lady (Sly and Single Again)

Год выпуска: 2014
Страна: Южная Корея
Жанр: Романтика, комедия
Продолжительность: 16 серий по ~60 мин.
Серий: 05 (16)-Озвучивание: Анастасия Романова и Денис Андер-Режиссёр: Ко Дон Сун (Go Dong-Sun / 고동선)
В ролях:
Чу Сан Ук (Joo Sang Wook / 주상욱) - Ча Чон У
Ли Мин Чжон (Lee Min Jung / 이민정) - На Э Ра
Ким Кю Ри (Kim Kyu Ri / 김규리) - Кук Е Чжин
Со Кан Чжун (Seo Kang Joon / 서강준) - Кук Сын Хен
Хван Бо Ра (Hwang Bo Ra / 황보라) - Кан Мин Ен
Ли Чон Киль (Lee Jung Gil / 이정길)
Ли Бён Чжун (Lee Byung Joon / 이병준)
Ким Э Рён (Kim Ye Ryung / 김예령)
Ким Хо Ён (Kim Ho Young / 김호영)
и др.-Описание:
Дорама расскажет о женщине по имени На Э Ра, которая после развода всё ещё надеется встретить своего принца на белом коне, но которая в итоге снова переключится на своего бывшего супруга, с недавних пор ставшего несметно богатым.-Доп.информация:
Релиз группы "GREEN TEA"
Перевод: фансаб-группа "Beloved Onnies"
Тайминг: Разифат Асланова
Работа со звуком: Ольга Гринтиева
Оформление постера: Елена Горборукова-Качество видео: HDTVRip
Формат: AVI
Видео кодек: XviD
Аудио кодек: MP3
Видео: 624x352, ~1300 Кбит/с, 29.97 fps
Аудио: 48.0 КHz, 192 Кбит/с, 2 канала
!!! Альтернативная раздача: 720p (AVI, H264)
Ост к дораме: Пронырливая дамочка

MediaInfo

Код:
General
Complete name                            : [GREEN TEA] Cunning.Single.Lady_01.avi
Format                                   : AVI
Format/Info                              : Audio Video Interleave
File size                                : 636 MiB
Duration                                 : 59mn 6s
Overall bit rate mode                    : Variable
Overall bit rate                         : 1 505 Kbps
Writing application                      : VirtualDubMod 1.5.10.3 | www.virtualdub-fr.org || (build 2550/release)
Writing library                          : VirtualDubMod build 2550/release
Video
ID                                       : 0
Format                                   : MPEG-4 Visual
Format profile                           : Advanced Simple@L5
Format settings, BVOP                    : 1
Format settings, QPel                    : No
Format settings, GMC                     : No warppoints
Format settings, Matrix                  : Default (MPEG)
Codec ID                                 : XVID
Codec ID/Hint                            : XviD
Duration                                 : 59mn 6s
Bit rate                                 : 1 299 Kbps
Width                                    : 624 pixels
Height                                   : 352 pixels
Display aspect ratio                     : 16:9
Frame rate                               : 29.970 fps
Color space                              : YUV
Chroma subsampling                       : 4:2:0
Bit depth                                : 8 bits
Scan type                                : Progressive
Compression mode                         : Lossy
Bits/(Pixel*Frame)                       : 0.197
Stream size                              : 549 MiB (86%)
Writing library                          : XviD 1.2.1 (UTC 2008-12-04)
Audio
ID                                       : 1
Format                                   : MPEG Audio
Format version                           : Version 1
Format profile                           : Layer 3
Mode                                     : Joint stereo
Codec ID                                 : 55
Codec ID/Hint                            : MP3
Duration                                 : 59mn 6s
Bit rate mode                            : Constant
Bit rate                                 : 192 Kbps
Channel(s)                               : 2 channels
Sampling rate                            : 48.0 KHz
Compression mode                         : Lossy
Stream size                              : 81.2 MiB (13%)
Alignment                                : Aligned on interleaves
Interleave, duration                     : 24 ms (0.72 video frame)
Interleave, preload duration             : 484 ms

Скриншоты


Добавлена 5 серия!


Последний раз редактировалось: Klёпa (2014-05-15 18:24), всего редактировалось 3 раз(а)
[Профиль] [ЛС]

limitana

Стаж: 3 года 10 месяцев

Сообщений: 153

Пост 09-Апр-2014 10:22 (спустя 12 часов)

[Цитировать]

СПАСИБО!!!!!
[Профиль] [ЛС]

Timyr

Стаж: 2 года 9 месяцев

Сообщений: 16

Откуда: Украина,Одесса

Пост 10-Апр-2014 12:36 (спустя 1 день 2 часа)

[Цитировать]

жаль 1 серия все бы сразу с озвучкой)

_________________
начил свой путь дорам с фильма Порывы ветра, этот фильм порвал мне мозг после этого я поклонник Южной кореи
[Профиль] [ЛС]

Klёпa ®

Стаж: 3 года 2 месяца

Сообщений: 906

Пост 10-Апр-2014 13:36 (спустя 1 час)

[Цитировать]

Timyr, все сразу не получится никак: сериал только выходит))
[Профиль] [ЛС]

HomAlex

Стаж: 2 года 8 месяцев

Сообщений: 2

Пост 10-Апр-2014 19:50 (спустя 6 часов)

[Цитировать]

!!!СПАСИБО!!!СПАСИБО!!!СПАСИБО!!!СПАСИБО!!!СПАСИБО!!!СПАСИБО!!!СПАСИБО!!!
[Профиль] [ЛС]

берёза

Стаж: 2 года 7 месяцев

Сообщений: 7

Пост 15-Апр-2014 12:54 (спустя 4 дня)

[Цитировать]

ЖДУ,ЖДУ,ЖДУ-пока полной озвучки не дождусь,никуда не уйду.Я всё сказала)))

_________________
Кто,кто?Берёза я!!!
[Профиль] [ЛС]

Klёпa ®

Стаж: 3 года 2 месяца

Сообщений: 906

Пост 16-Апр-2014 20:40 (спустя 1 день 7 часов)

[Цитировать]

Добавлена 2 серия!
[Профиль] [ЛС]

Ирина78_89

Стаж: 3 года 1 месяц

Сообщений: 2

Пост 29-Апр-2014 01:44 (спустя 12 дней)

[Цитировать]

Озвучка ведь завершена, почему не выкладывают все серии?
[Профиль] [ЛС]

dusy78

Стаж: 3 года 10 месяцев

Сообщений: 1005

Откуда: Россия

Пост 29-Апр-2014 02:33 (спустя 48 минут)

[Цитировать]

Ирина78_89, ссылки на другие ресурсы сети на трекере запрещены! Прочтите, пожалуйста, внимательно правила. Это во-первых
Во-вторых, группа Green tea выложила озвученные ею серии. Остальные серии находятся в процессе озвучивания.
[Профиль] [ЛС]

Klёпa ®

Стаж: 3 года 2 месяца

Сообщений: 906

Пост 01-Май-2014 20:44 (спустя 2 дня 18 часов)

[Цитировать]

Добавлена 3 серия!
[Профиль] [ЛС]

Зяблик

Стаж: 3 года

Сообщений: 3

Пост 24-Июн-2014 09:23 (спустя 1 месяц 22 дня)

[Цитировать]

Когда будет продолжение? bh
[Профиль] [ЛС]

Ланочка10_83

Стаж: 3 года 1 месяц

Сообщений: 131

Пост 07-Авг-2014 09:28 (спустя 1 месяц 13 дней)

[Цитировать]

Скажите, а когда будет продолжение и будет ли оно вообще?
[Профиль] [ЛС]

nuranura

Стаж: 3 года 1 месяц

Сообщений: 142

Пост 07-Авг-2014 12:52 (спустя 3 часа)

[Цитировать]

и мне интересно. хотелось бы посмотреть в вашей озвучке
[Профиль] [ЛС]

Nas

Стаж: 3 года 10 месяцев

Сообщений: 372

Пост 11-Мар-2015 15:16 (спустя 7 месяцев 4 дня)

[Цитировать]

Ланочка10_83, Зяблик, nuranura, продолжение будет уже на следующей неделе
[Профиль] [ЛС]

nuranura

Стаж: 3 года 1 месяц

Сообщений: 142

Пост 11-Мар-2015 17:32 (спустя 2 часа 15 минут)

[Цитировать]

bp УРА!УРА!УРА!!!!!! bp
[Профиль] [ЛС]
Показать сообщения:    
Ответить на тему

Текущее время: Сегодня 02:06

Часовой пояс: GMT



Вы не можете начинать темы
Вы не можете отвечать на сообщения
Вы не можете редактировать свои сообщения
Вы не можете удалять свои сообщения
Вы не можете голосовать в опросах
Вы не можете прикреплять файлы к сообщениям
Вы не можете скачивать файлы