Жалобы на работу трекера ! прошу сюда :)

Вы окружены / You're All Surrounded [20/20] (Yoo In Shik / У Ин Шик) [2014 г., комедия, боевик, романтика, HDTVRip] [RAW] [360p] DVO GREEN TEA

Страницы :  1, 2, 3, 4  След.

Ответить на тему
 
Автор Сообщение

Klёпa ®

Стаж: 3 года 2 месяца

Сообщений: 906

Пост 10-Май-2014 17:45

[Цитировать]

Вы окружены
Neoheedeuleun Powidwaetda / You're All Surrounded

Год выпуска: 2014
Страна: Южная Корея
Жанр: Комедия, боевик, романтика
Продолжительность: 20 серий по ~60 мин.
Серий: 1-20 (20)-Озвучивание: двухголосое (закадровое) - Ольга Гринтиева и Константин Романов
Сэмпл: http://yadi.sk/d/CKQevYoCPmgza-Режиссёр: У Ин Шик (Yoo In Shik / 유인식)
В ролях:
Чха Сын Вон (Cha Seung Won / 차승원) - детектив Со Пан Сок
Ли Сын Ги (Lee Seung Ki / 이승기) - Ын Дэ Гу / Ким Чжи Ён
Го Ара (Go Ah Ra / 아라) - О Су Сон
Ан Чжэ Хен (Ahn Jae Hyun / 안재현) - Пак Тэ Иль
Пак Чжон Мин (Park Jung Min / 박정민) - Чжи Гук
Сон Чжи Ро (Sung Ji Roo / 성지루) - Ли Ын До
О Юн А (Oh Yoon Ah / 오윤아) - Ким Са Гён
Им Вон Хи (Im Won Hee / 임원희) - Чха Тэ О, командир отделения
Со И Сук (Seo Yi Sook / 서이숙) - Кан Сок Сун
Мун Хи Гён (Moon Hee Kyung / 문희경) - Ю Э Ён
и др.-Описание:
История о четырёх выпускниках полицейской академии, которые приступили к своей работе в отделе убийств Каннамского департамента полиции и которым только предстоит научиться всем тонкостям работы в качестве стражей правопорядка и стать опытными детективами.-Доп.информация:
Релиз группы "GREEN TEA"
Перевод: фансаб-группа "МАНИЯ"
Работа со звуком: Ольга Гринтиева-Качество видео: НDRip
Формат: AVI
Видео кодек: XviD
Аудио кодек: MP3
Видео: 624x352, ~1350-1400 Кбит/с, 23.976 fps
Аудио: 192 Кбит/с, 48.0 КHz, 2 канала
ОСТ к дораме Вы окружены
!!! Альтернативные раздачи: 720p (AVI, H264) // 450p (AVI, H264)12.08.2014 - добавлена 20 серия.

MediaInfo

Код:
General
Complete name                            : [GREEN TEA] Вы.окружены (360p)_E01.avi
Format                                   : AVI
Format/Info                              : Audio Video Interleave
File size                                : 648 MiB
Duration                                 : 58mn 56s
Overall bit rate                         : 1 537 Kbps
Movie name                               : Вы окружены / You're All Surrounded (2014)
Writing application                      : VirtualDubMod 1.5.10.2 (build 2542/release)
Writing library                          : VirtualDubMod build 2542/release
Video
ID                                       : 0
Format                                   : MPEG-4 Visual
Format profile                           : Advanced Simple@L5
Format settings, BVOP                    : 1
Format settings, QPel                    : No
Format settings, GMC                     : No warppoints
Format settings, Matrix                  : Default (MPEG)
Codec ID                                 : XVID
Codec ID/Hint                            : XviD
Duration                                 : 58mn 56s
Bit rate                                 : 1 336 Kbps
Width                                    : 624 pixels
Height                                   : 352 pixels
Display aspect ratio                     : 16:9
Frame rate                               : 23.976 fps
Color space                              : YUV
Chroma subsampling                       : 4:2:0
Bit depth                                : 8 bits
Scan type                                : Progressive
Compression mode                         : Lossy
Bits/(Pixel*Frame)                       : 0.254
Stream size                              : 563 MiB (87%)
Writing library                          : XviD 1.2.1 (UTC 2008-12-04)
Audio
ID                                       : 1
Format                                   : MPEG Audio
Format version                           : Version 1
Format profile                           : Layer 3
Codec ID                                 : 55
Codec ID/Hint                            : MP3
Duration                                 : 58mn 55s
Bit rate mode                            : Constant
Bit rate                                 : 192 Kbps
Channel(s)                               : 2 channels
Sampling rate                            : 48.0 KHz
Compression mode                         : Lossy
Delay relative to video                  : 504ms
Stream size                              : 80.9 MiB (12%)
Alignment                                : Split accross interleaves
Interleave, duration                     : 42 ms (1.00 video frame)
Interleave, preload duration             : 504 ms
Title                                    : GREEN TEA DVO (Ольга Гринтиева, Константин Романов)


Последний раз редактировалось: Klёпa (2014-08-11 22:46), всего редактировалось 18 раз(а)
[Профиль] [ЛС]

Melind@

Стаж: 3 года 1 месяц

Сообщений: 79

Пост 11-Май-2014 16:39 (спустя 22 часа)

[Цитировать]

Спасибо, с почином :)
[Профиль] [ЛС]

Klёпa ®

Стаж: 3 года 2 месяца

Сообщений: 906

Пост 11-Май-2014 19:53 (спустя 3 часа)

[Цитировать]

Добавлена 2 серия!
[Профиль] [ЛС]

Светлаша

Стаж: 2 года 7 месяцев

Сообщений: 10

Пост 12-Май-2014 04:06 (спустя 8 часов)

[Цитировать]

Спасибо за перевод и за Ваш неоценимый труд!!!Удачи и успехов в Вашем благородном деле!!!
[Профиль] [ЛС]

rodqer

Стаж: 3 года 10 месяцев

Сообщений: 417

Откуда: кемерово

Пост 12-Май-2014 14:08 (спустя 10 часов)

[Цитировать]

спасибоооооооооооо
[Профиль] [ЛС]

OreoneS

Стаж: 2 года 8 месяцев

Сообщений: 8

Пост 12-Май-2014 15:24 (спустя 1 час 15 минут)

[Цитировать]

спасиб за озвучку, успеха ;)

_________________
[Профиль] [ЛС]

Tainted-love

Стаж: 2 года 11 месяцев

Сообщений: 1180

Пост 17-Май-2014 21:08 (спустя 5 дней)

[Цитировать]

К голосу Ольги Гринтиевой я питаю слабость! удачи в озвучке.
[Профиль] [ЛС]

Klёпa ®

Стаж: 3 года 2 месяца

Сообщений: 906

Пост 20-Май-2014 17:48 (спустя 2 дня 20 часов)

[Цитировать]

Добавлены 3-4 серии!
[Профиль] [ЛС]

Klёпa ®

Стаж: 3 года 2 месяца

Сообщений: 906

Пост 24-Май-2014 16:47 (спустя 3 дня)

[Цитировать]

Добавлена 5 серия!
[Профиль] [ЛС]

Klёпa ®

Стаж: 3 года 2 месяца

Сообщений: 906

Пост 26-Май-2014 17:03 (спустя 2 дня)

[Цитировать]

Добавлена 6 серия!
[Профиль] [ЛС]

Klёпa ®

Стаж: 3 года 2 месяца

Сообщений: 906

Пост 31-Май-2014 11:28 (спустя 4 дня)

[Цитировать]

Добавлена 7 серия!
[Профиль] [ЛС]

Klёпa ®

Стаж: 3 года 2 месяца

Сообщений: 906

Пост 31-Май-2014 14:31 (спустя 3 часа)

[Цитировать]

Добавлена 8 серия!
[Профиль] [ЛС]

rodqer

Стаж: 3 года 10 месяцев

Сообщений: 417

Откуда: кемерово

Пост 31-Май-2014 16:25 (спустя 1 час 54 минуты)

[Цитировать]

спасибо)))))))))))))))))) огромное
[Профиль] [ЛС]

Klёпa ®

Стаж: 3 года 2 месяца

Сообщений: 906

Пост 07-Июн-2014 09:29 (спустя 6 дней)

[Цитировать]

Добавлена 9 серия!
[Профиль] [ЛС]

j_777

Стаж: 3 года 9 месяцев

Сообщений: 302

Пост 09-Июн-2014 06:36 (спустя 1 день 21 час)

[Цитировать]

Спасибо огромное!!!
[Профиль] [ЛС]
Показать сообщения:    
Ответить на тему

Текущее время: Сегодня 02:27

Часовой пояс: GMT



Вы не можете начинать темы
Вы не можете отвечать на сообщения
Вы не можете редактировать свои сообщения
Вы не можете удалять свои сообщения
Вы не можете голосовать в опросах
Вы не можете прикреплять файлы к сообщениям
Вы не можете скачивать файлы