Жалобы на работу трекера ! прошу сюда :)

Вы окружены / You're All Surrounded [20/20] (Yoo In Shik / У Ин Шик) [2014 г., комедия, боевик, романтика, HDTVRip] [RAW] [450p] DVO GREEN TEA

Страницы :  1, 2  След.

Ответить на тему
 
Автор Сообщение

Nas ®

Стаж: 3 года 10 месяцев

Сообщений: 372

Пост 14-Май-2014 08:29

[Цитировать]

Вы окружены
Neoheedeuleun Powidwaetda / You're All Surrounded

Год выпуска: 2014
Страна: Южная Корея
Жанр: Комедия, боевик, романтика
Продолжительность: 20 серий по ~60 мин.
Серий: 20/20-Озвучивание: двухголосое (закадровое) - Ольга Гринтиева и Константин Романов
Сэмпл:-Режиссёр: У Ин Шик (Yoo In Shik / 유인식)
В ролях:
Чха Сын Вон (Cha Seung Won / 차승원) - детектив Со Пан Сок
Ли Сын Ги (Lee Seung Ki / 이승기) - Ын Дэ Гу / Ким Чжи Ён
Го Ара (Go Ah Ra / 아라) - О Су Сон
Ан Чжэ Хен (Ahn Jae Hyun / 안재현) - Пак Тэ Иль
Пак Чжон Мин (Park Jung Min / 박정민) - Чжи Гук
Сон Чжи Ро (Sung Ji Roo / 성지루) - Ли Ын До
О Юн А (Oh Yoon Ah / 오윤아) - Ким Са Гён
Им Вон Хи (Im Won Hee / 임원희) - Чха Тэ О, командир отделения
Со И Сук (Seo Yi Sook / 서이숙) - Кан Сок Сун
Мун Хи Гён (Moon Hee Kyung / 문희경) - Ю Э Ён
и др.-Описание:
История о четырёх выпускниках полицейской академии, которые приступили к своей работе в отделе убийств Каннамского департамента полиции и которым только предстоит научиться всем тонкостям работы в качестве стражей правопорядка и стать опытными детективами.-Доп.информация:
Релиз группы "GREEN TEA"
Перевод: фансаб-группа "МАНИЯ"
Работа со звуком: Ольга Гринтиева-Качество видео: НDRip
Формат: AVI
Видео кодек: h264
Аудио кодек: MP3
Видео: 800x450, 1500 Кбит/с, 29.970 fps
Аудио: 192 Кбит/с, 48.0 КHz, 2 канала
ОСТ к дораме Вы окружены
!!! Альтернативная раздача: 720p (AVI, H264)
!!! Альтернативная раздача: 360p (AVI, XviD)

MediaInfo

Код:
General
Complete name                            : C:\Users\пользователь\Desktop\ \[GREEN TEA] Вы окружены 450р\[GREEN TEA] Вы окружены 02.avi
Format                                   : AVI
Format/Info                              : Audio Video Interleave
File size                                : 720 MiB
Duration                                 : 59mn 25s
Overall bit rate                         : 1 694 Kbps
Writing application                      : VirtualDubMod 1.5.10.2 (build 2540/release)
Writing library                          : VirtualDubMod build 2540/release
Video
ID                                       : 0
Format                                   : AVC
Format/Info                              : Advanced Video Codec
Format profile                           : High@L5.1
Format settings, CABAC                   : Yes
Format settings, ReFrames                : 2 frames
Codec ID                                 : H264
Duration                                 : 59mn 25s
Bit rate                                 : 1 500 Kbps
Width                                    : 800 pixels
Height                                   : 450 pixels
Display aspect ratio                     : 16:9
Frame rate                               : 29.970 fps
Color space                              : YUV
Chroma subsampling                       : 4:2:0
Bit depth                                : 8 bits
Scan type                                : Progressive
Bits/(Pixel*Frame)                       : 0.139
Stream size                              : 634 MiB (88%)
Writing library                          : x264 core 116 r2057kMod 0ba8a9c
Encoding settings                        : cabac=1 / ref=2 / deblock=1:0:0 / analyse=0x3:0x13 / me=umh / subme=7 / psy=1 / fade_compensate=0.00 / psy_rd=1.00:0.00 / mixed_ref=1 / me_range=16 / chroma_me=1 / trellis=1 / 8x8dct=1 / cqm=0 / deadzone=21,11 / fast_pskip=1 / chroma_qp_offset=-2 / threads=4 / sliced_threads=1 / slices=4 / nr=0 / decimate=1 / interlaced=0 / bluray_compat=0 / constrained_intra=0 / bframes=0 / weightp=2 / keyint=250 / keyint_min=25 / scenecut=40 / intra_refresh=0 / rc=abr / mbtree=0 / bitrate=1500 / ratetol=1.0 / qcomp=0.60 / qpmin=10 / qpmax=51 / qpstep=4 / ip_ratio=1.40 / aq=1:1.00
Audio
ID                                       : 1
Format                                   : MPEG Audio
Format version                           : Version 1
Format profile                           : Layer 3
Codec ID                                 : 55
Codec ID/Hint                            : MP3
Duration                                 : 59mn 25s
Bit rate mode                            : Constant
Bit rate                                 : 192 Kbps
Channel(s)                               : 2 channels
Sampling rate                            : 48.0 KHz
Compression mode                         : Lossy
Stream size                              : 81.6 MiB (11%)
Alignment                                : Aligned on interleaves
Interleave, duration                     : 33 ms (1.00 video frame)
Interleave, preload duration             : 504 ms
GREEN TEA DVO (Ольга Гринтиева, Константин Романов)

Скриншоты



Последний раз редактировалось: Nas (2014-07-13 23:06), всего редактировалось 6 раз(а)
[Профиль] [ЛС]

Nas ®

Стаж: 3 года 10 месяцев

Сообщений: 372

Пост 18-Май-2014 13:22 (спустя 4 дня)

[Цитировать]

Добавлена 3 серия!
[Профиль] [ЛС]

Nas ®

Стаж: 3 года 10 месяцев

Сообщений: 372

Пост 19-Май-2014 16:02 (спустя 1 день 2 часа)

[Цитировать]

Добавлена 4 серия!
[Профиль] [ЛС]

serafimama

Стаж: 2 года 6 месяцев

Сообщений: 5

Пост 22-Май-2014 12:27 (спустя 2 дня 20 часов)

[Цитировать]

Спасибо!!! Жду с нетерпением продолжения.Очень понравилось начало.
[Профиль] [ЛС]

Nas ®

Стаж: 3 года 10 месяцев

Сообщений: 372

Пост 24-Май-2014 16:57 (спустя 2 дня 4 часа)

[Цитировать]

Добавлена 5 серия!
[Профиль] [ЛС]

Nas ®

Стаж: 3 года 10 месяцев

Сообщений: 372

Пост 27-Май-2014 19:37 (спустя 3 дня)

[Цитировать]

Добавлена 6 серия!
[Профиль] [ЛС]

Nas ®

Стаж: 3 года 10 месяцев

Сообщений: 372

Пост 31-Май-2014 16:22 (спустя 3 дня)

[Цитировать]

Добавлена 7-8 серия!
[Профиль] [ЛС]

Tainted-love

Стаж: 2 года 11 месяцев

Сообщений: 1180

Пост 03-Июн-2014 10:53 (спустя 2 дня 18 часов)

[Цитировать]

Спасибо очень оперативно продвигается озвучка! Вы молодцы!!!!!!!!!!!!
[Профиль] [ЛС]

Nas ®

Стаж: 3 года 10 месяцев

Сообщений: 372

Пост 23-Июн-2014 18:36 (спустя 20 дней)

[Цитировать]

Добавлена 12 серия!
[Профиль] [ЛС]

limitana

Стаж: 3 года 10 месяцев

Сообщений: 153

Пост 24-Июн-2014 16:56 (спустя 22 часа)

[Цитировать]

Ольга Гринтиева и Константин Романов, спасибо большое!
[Профиль] [ЛС]

Tainted-love

Стаж: 2 года 11 месяцев

Сообщений: 1180

Пост 06-Июл-2014 20:18 (спустя 12 дней)

[Цитировать]

Присоединяюсь к последнему пожеланию!!!!!!!!!!!!!!!
[Профиль] [ЛС]

Nas ®

Стаж: 3 года 10 месяцев

Сообщений: 372

Пост 13-Июл-2014 23:00 (спустя 7 дней)

[Цитировать]

Добавлена 13-14 серия!
[Профиль] [ЛС]

Tainted-love

Стаж: 2 года 11 месяцев

Сообщений: 1180

Пост 28-Июл-2014 18:08 (спустя 14 дней)

[Цитировать]

Осталось 6 серий... совсем неплохо...удачки.
[Профиль] [ЛС]

Tainted-love

Стаж: 2 года 11 месяцев

Сообщений: 1180

Пост 05-Авг-2014 11:14 (спустя 7 дней)

[Цитировать]

Ничего не понимаю... в разных размерах не одинаковое количество серий. Почему так?
[Профиль] [ЛС]

Tainted-love

Стаж: 2 года 11 месяцев

Сообщений: 1180

Пост 12-Авг-2014 16:33 (спустя 7 дней)

[Цитировать]

Ну и... где последние серии? В других размерах уже есть... выложите их пожалуйста.
[Профиль] [ЛС]
Показать сообщения:    
Ответить на тему

Текущее время: Сегодня 22:09

Часовой пояс: GMT



Вы не можете начинать темы
Вы не можете отвечать на сообщения
Вы не можете редактировать свои сообщения
Вы не можете удалять свои сообщения
Вы не можете голосовать в опросах
Вы не можете прикреплять файлы к сообщениям
Вы не можете скачивать файлы