Жалобы на работу трекера ! прошу сюда :)

Доктор-чужестранец / Dakteo Yibangin / Doctor Stranger [20/20] (Jin Hyuk) [2014 г., медицина, драма, HDTVRip] [RAW] [720p] DVO GREEN TEA

Страницы :  1, 2, 3, 4, 5  След.

Ответить на тему
 
Автор Сообщение

Klёпa ®

Стаж: 3 года 2 месяца

Сообщений: 906

Пост 15-Май-2014 00:20

[Цитировать]

Доктор-чужестранец
Dakteo Yibangin / Doctor Stranger

Год выпуска: 2014
Страна: Южная Корея
Жанр: Медицина, драма
Продолжительность: 20 серий по ~60 мин.
Серий: 1-20 (20)-Озвучивание: двухголосое (закадровое) - Людмила Линькова и Дмитрий Чепусов
Сэмпл: http://yadi.sk/d/8uFuTn9pRAqzC-Режиссёр: Джин Хёк (Jin Hyuk / 진혁)
В ролях:
Пак Хэ Чжин (Park Hae Jin / 박해진) - Han Jae Joon
Кан Со Ра (Kang So Ra / 강소라) - Oh Soo Hyun
Ли Чон Сок (Lee Jong Suk / 이종석) - Park Hoon
Чжин Се Ён (Jin Se Yun / 진세연) - Song Jae Hee / Han Seung Hee
Юн Бо Ра (Yoon Bo Ra / 윤보라) - Lee Chung Yi
Ким Сан Чжун (Kim Sang Joong / 김상중) - Park Cheol
Ким Сан Хо (Kim Sang Ho / 김상호) - Yang Jeong Han
Чхон Хо Джин (Chun Ho Jin / 천호진) - Jang Seok Joo
Хван Дон Чжу (Hwang Dong Joo / 황동주) - Geum Bong Hyun
Чхве Чжон У (Choi Jung Woo / 최정우) - Moon Hyung Wook
и др.-Описание:
В детстве Пак Хун был похищен и отправлен в Северную Корею вместе со своим отцом. Повзрослев, он принимает решение пойти по стопам отца и выучиться на врача. Пак Хун становится гениальным кардиохирургом. Вскоре он сбегает из Северной Кореи в Южную.
В Южной Корее он устраивается на работу в престижную больницу Университета Донву. Однако, находится он тут в статусе аутсайдера. Но Пак Хуна это мало волнует, его цель - заработать как можно больше денег, чтобы вывести из Северной Кореи свою возлюбленную.-Доп.информация:
Релиз группы "GREEN TEA"
Озвучивается при поддержке зрителей GREEN TEA
Перевод: Фансаб-группа "BiG BOSS"
Работа со звуком: Людмила Линькова
Оформление постера: Елена Горборукова-Качество видео: НDTVRip
Формат: AVI
Видео кодек: H264
Аудио кодек: MP3
Видео: 1280x720, ~3000 Кбит/с, 29.97 fps
Аудио: 128 Кбит/с, 48.0 КHz, 2 канала
Саундтрек к дораме Доктор-чужестранец
!!! Альтернативная раздача: 360p (AVI, XviD)02.08.2014 - добавлена 20 серия.

MediaInfo

Код:
General
Complete name                            : Dосtоr.Strаngеr (720p)_E01.avi
Format                                   : AVI
Format/Info                              : Audio Video Interleave
File size                                : 1.15 GiB
Duration                                 : 59mn 16s
Overall bit rate                         : 2 771 Kbps
Movie name                               : Доктор-чужестранец / Doctor Stranger (2014)
Writing application                      : VirtualDubMod 1.5.10.2 (build 2542/release)
Writing library                          : VirtualDubMod build 2542/release
Video
ID                                       : 0
Format                                   : AVC
Format/Info                              : Advanced Video Codec
Format profile                           : High@L5.1
Format settings, CABAC                   : Yes
Format settings, ReFrames                : 4 frames
Codec ID                                 : h264
Duration                                 : 59mn 16s
Bit rate                                 : 2 631 Kbps
Nominal bit rate                         : 3 000 Kbps
Width                                    : 1 280 pixels
Height                                   : 720 pixels
Display aspect ratio                     : 16:9
Frame rate                               : 29.970 fps
Color space                              : YUV
Chroma subsampling                       : 4:2:0
Bit depth                                : 8 bits
Scan type                                : Progressive
Bits/(Pixel*Frame)                       : 0.095
Stream size                              : 1.09 GiB (95%)
Writing library                          : x264 core 130 r2273 b3065e6
Encoding settings                        : cabac=1 / ref=3 / deblock=1:-1:-1 / analyse=0x3:0x113 / me=umh / subme=9 / psy=1 / psy_rd=1.00:1.00 / mixed_ref=1 / me_range=16 / chroma_me=1 / trellis=1 / 8x8dct=1 / cqm=0 / deadzone=21,11 / fast_pskip=1 / chroma_qp_offset=-8 / threads=4 / lookahead_threads=1 / sliced_threads=0 / nr=0 / decimate=1 / interlaced=0 / bluray_compat=0 / constrained_intra=0 / bframes=3 / b_pyramid=2 / b_adapt=1 / b_bias=0 / direct=3 / weightb=1 / open_gop=0 / weightp=2 / keyint=299 / keyint_min=25 / scenecut=40 / intra_refresh=0 / rc_lookahead=40 / rc=2pass / mbtree=1 / bitrate=3000 / ratetol=1.0 / qcomp=0.60 / qpmin=10 / qpmax=51 / qpstep=4 / cplxblur=20.0 / qblur=0.5 / ip_ratio=1.40 / aq=1:1.00
Audio
ID                                       : 1
Format                                   : MPEG Audio
Format version                           : Version 1
Format profile                           : Layer 3
Mode                                     : Joint stereo
Mode extension                           : MS Stereo
Codec ID                                 : 55
Codec ID/Hint                            : MP3
Duration                                 : 59mn 16s
Bit rate mode                            : Constant
Bit rate                                 : 128 Kbps
Channel(s)                               : 2 channels
Sampling rate                            : 48.0 KHz
Compression mode                         : Lossy
Delay relative to video                  : 696ms
Stream size                              : 54.3 MiB (5%)
Alignment                                : Split accross interleaves
Interleave, duration                     : 33 ms (1.00 video frame)
Interleave, preload duration             : 504 ms
Title                                    : GREEN TEA DVO (Людмила Линькова и Дмитрий Чепусов)


Последний раз редактировалось: Klёпa (2014-08-02 19:07), всего редактировалось 24 раз(а)
[Профиль] [ЛС]

Ланочка10_83

Стаж: 3 года 1 месяц

Сообщений: 131

Пост 15-Май-2014 04:13 (спустя 3 часа)

[Цитировать]

Ухты спасибо! :) Быстрой и легкой вам озвучки. :)
[Профиль] [ЛС]

E2072

Стаж: 3 года 2 месяца

Сообщений: 120

Пост 15-Май-2014 09:32 (спустя 5 часов)

[Цитировать]

Спасибо! Надеюсь озвучка будет выходить оперативно) Удачи в работе!
[Профиль] [ЛС]

Klёпa ®

Стаж: 3 года 2 месяца

Сообщений: 906

Пост 16-Май-2014 20:41 (спустя 1 день 11 часов)

[Цитировать]

Добавлена 2 серия!
[Профиль] [ЛС]

nettmenia

Стаж: 3 года

Сообщений: 1

Пост 17-Май-2014 09:30 (спустя 12 часов)

[Цитировать]

Легкой озвучки! с началом проекта вас!))
[Профиль] [ЛС]

Tainted-love

Стаж: 2 года 11 месяцев

Сообщений: 1180

Пост 18-Май-2014 11:03 (спустя 1 день 1 час)

[Цитировать]

Присоединяюсь к последнему пожеланию!
[Профиль] [ЛС]

Klёпa ®

Стаж: 3 года 2 месяца

Сообщений: 906

Пост 19-Май-2014 21:15 (спустя 1 день 10 часов)

[Цитировать]

Добавлена 3 серия!
[Профиль] [ЛС]

Tainted-love

Стаж: 2 года 11 месяцев

Сообщений: 1180

Пост 20-Май-2014 22:18 (спустя 1 день 1 час)

[Цитировать]

Спасибо огромное!!!!!!!!!!!!!!!!!!!
[Профиль] [ЛС]

Klёпa ®

Стаж: 3 года 2 месяца

Сообщений: 906

Пост 23-Май-2014 14:20 (спустя 2 дня 16 часов)

[Цитировать]

Добавлена 4 серия!
[Профиль] [ЛС]

Хиджиката Тоширо

Стаж: 3 года 9 месяцев

Сообщений: 54

Пост 24-Май-2014 08:53 (спустя 18 часов)

[Цитировать]

Klёпa,
спасибо ^__^
[Профиль] [ЛС]

Jovid

Стаж: 3 года 10 месяцев

Сообщений: 20

Пост 24-Май-2014 11:18 (спустя 2 часа 24 минуты)

[Цитировать]

Мужской голос просто супер!
Ощущение будто смотрю профессиональный дубляж.
Спасибо!
[Профиль] [ЛС]

Klёпa ®

Стаж: 3 года 2 месяца

Сообщений: 906

Пост 24-Май-2014 13:56 (спустя 2 часа 37 минут)

[Цитировать]

Хиджиката Тоширо, пожалуйста! наслаждайтесь сериалом))
Jovid, что за дискриминация?)) Женский голос нисколько не уступает! Кстати, в чём по-вашему разница между профессионалами и любителями и что есть для Вас "профессиональный дубляж"?))
[Профиль] [ЛС]

rodqer

Стаж: 3 года 10 месяцев

Сообщений: 417

Откуда: кемерово

Пост 24-Май-2014 14:10 (спустя 13 минут)

[Цитировать]

спасибо огромное
[Профиль] [ЛС]

BetaKsi

Стаж: 3 года 10 месяцев

Сообщений: 5

Откуда: Астрахань

Пост 24-Май-2014 17:37 (спустя 3 часа)

[Цитировать]

Сейчас послушала сэмпл с озвучкой... Wow! Я в восторге от голосов Людмилы Линьковой и Дмитрия Чепусова))) Такое ощущение, что профессионалы с центральных каналов работают)) Пока подожду побольше серий, чтобы потом каждый день наслаждаться дорамой)))
Желаю всем работникам GREEN TEA, занятых данным проектом, сил и времени, чтобы закончить дораму)))
P.S. Чувствуется скоро дикторов GREEN TEA на какой-нибудь ТВ канал заберут)))
[Профиль] [ЛС]

Jovid

Стаж: 3 года 10 месяцев

Сообщений: 20

Пост 24-Май-2014 21:26 (спустя 3 часа)

[Цитировать]

Jovid, что за дискриминация?)) Женский голос нисколько не уступает!
Капитулирую
Кстати, в чём по-вашему разница между профессионалами и любителями
Профессионалы - у каждого свой индивидуальный.
Любители - всех 1-2 человека.
и что есть для Вас "профессиональный дубляж"?))
Профессиональный дубляж - у каждого свой индивидуальный голос под-стать голосу персонажа на экране.
Такое ощущение, что профессионалы с центральных каналов работают))
Абсолютно солидарен!
Желаю всем работникам GREEN TEA, занятых данным проектом, сил и времени, чтобы закончить дораму)))
P.S. Чувствуется скоро дикторов GREEN TEA на какой-нибудь ТВ канал заберут)))
Опять же абсолютно солидарен!
[Профиль] [ЛС]
Показать сообщения:    
Ответить на тему

Текущее время: Сегодня 18:39

Часовой пояс: GMT



Вы не можете начинать темы
Вы не можете отвечать на сообщения
Вы не можете редактировать свои сообщения
Вы не можете удалять свои сообщения
Вы не можете голосовать в опросах
Вы не можете прикреплять файлы к сообщениям
Вы не можете скачивать файлы