Жалобы на работу трекера ! прошу сюда :)

С чистого листа / Gaegwachunsun / А New Leaf [16/16] (Park Jae Bum) [2014 г., мелодрама, юриспруденция, HDTVRip] [RAW] [360p] VO GREEN TEA

Страницы :  1, 2  След.

Ответить на тему
 
Автор Сообщение

Klёпa ®

Стаж: 3 года 2 месяца

Сообщений: 906

Пост 15-Май-2014 17:12

[Цитировать]

С чистого листа (Покаяние)
Gaegwachunsun / A New Leaf (Repentance)

Год выпуска: 2014
Страна: Южная Корея
Жанр: Мелодрама, юриспруденция
Продолжительность: 16 серий по ~60 мин.
Серий: 1-16 (16)-Озвучивание: одноголосое (закадровое) - Екатерина Юрьева
Сэмпл: http://yadi.sk/d/prwbQ98TQLemy-Режиссёр: Пак Чжэ Бом (Park Jae Bum / 박재범)
В ролях:
Ким Мён Мин (Kim Myung Min / 김명민 ) - Ким Сок Чжу
Ким Сан Чжун (Kim Sang Joong / 김상중 ) - Чха Ён Хо
Пак Мин Ён (Park Min Young / 박민영 ) - Ли Джи Юн
Ли Чжу Ён (Lee Joo Yeon / 이주연 ) - Ли Мэ Ри
Чхе Чжон Ан (Chae Jung Ahn / 채정안 ) - Ю Чон Сон
Джин И Хан (Jin Yi Han / 진이한 ) - Чон Чжи Вон
Ким Юн Со (Kim Yoon Seo / 김윤서 ) - Чон Хе Рён
Чхве Иль Хва (Choi Il Hwa / 최일화 ) - Kang Shin Il
О Чжон Се (Oh Jung Se / 오정세 ) - Park Sang Tae
Ли Мин Хёк (Lee Min Hyuk / 이민혁 ) - Lee Ji Hyuk
Ким Су Хён (Kim Suh Hyung / 김서형 ) - Lee Sun Hee
и др.-Описание:
Дорама рассказывает о судьбе расчётливого и успешного адвоката, который в результате трагического инцидента теряет память. Эта история об адвокате, который пытается понять: кто же он на самом деле.
Ким Сок Чжу (Ким Мён Мин) адвокат-звезда, который не гнушается любыми средствами, чтобы выиграть процесс. Череду его побед смогла прервать только амнезия.
Ли Чи Ю (Пак Мин Ен) - стажёр в юридической фирме, находящаяся в прямом подчинении у адвоката Ким.
Ю Чон Сон (Чэ Чжон А) - его богатая невеста, единственная наследница огромного состояния.
И наконец, глава юридической фирмы, человек, благодаря которому Ким Сок Чжу стал выдающимся адвокатом - Чха Юн У ( Ким Сан Чжун).-Доп.информация:
Релиз группы "GREEN TEA"
Перевод: фансаб-группа "BEARS"
Работа со звуком: Екатерина Юрьева
Оформление постера: Елена Горборукова-Качество видео: НDTVRip
Формат: AVI
Видео кодек: XviD
Аудио кодек: MP3
Видео: 624x352, ~1400 Кбит/с, 29.97 fps
Аудио: 48.0 КГц, 192 Кбит/с, 2 канала
Субтитры: без хардсаба
!!! Альтернативная раздача: 720p (AVI, H264)07.07.2014 - добавлена 16 серия.

MediaInfo

Код:
General
Complete name                            : [GREEN TEA] Nеw.Lеаf (360p)_E01.avi
Format                                   : AVI
Format/Info                              : Audio Video Interleave
File size                                : 681 MiB
Duration                                 : 58mn 46s
Overall bit rate                         : 1 620 Kbps
Movie name                               : С чистого листа / А New Leaf (2014)
Writing application                      : VirtualDubMod 1.5.10.2 (build 2542/release)
Writing library                          : VirtualDubMod build 2542/release
Video
ID                                       : 0
Format                                   : MPEG-4 Visual
Format profile                           : Advanced Simple@L5
Format settings, BVOP                    : No
Format settings, QPel                    : No
Format settings, GMC                     : No warppoints
Format settings, Matrix                  : Default (MPEG)
Codec ID                                 : XVID
Codec ID/Hint                            : XviD
Duration                                 : 58mn 46s
Bit rate                                 : 1 416 Kbps
Width                                    : 624 pixels
Height                                   : 352 pixels
Display aspect ratio                     : 16:9
Frame rate                               : 29.970 fps
Color space                              : YUV
Chroma subsampling                       : 4:2:0
Bit depth                                : 8 bits
Scan type                                : Progressive
Compression mode                         : Lossy
Bits/(Pixel*Frame)                       : 0.215
Stream size                              : 595 MiB (87%)
Writing library                          : XviD 1.2.1 (UTC 2008-12-04)
Audio
ID                                       : 1
Format                                   : MPEG Audio
Format version                           : Version 1
Format profile                           : Layer 3
Mode                                     : Joint stereo
Codec ID                                 : 55
Codec ID/Hint                            : MP3
Duration                                 : 58mn 46s
Bit rate mode                            : Constant
Bit rate                                 : 192 Kbps
Channel(s)                               : 2 channels
Sampling rate                            : 48.0 KHz
Compression mode                         : Lossy
Stream size                              : 80.7 MiB (12%)
Alignment                                : Aligned on interleaves
Interleave, duration                     : 33 ms (1.00 video frame)
Interleave, preload duration             : 504 ms
Title                                    : GREEN TEA VO (Екатерина Юрьева)

Скриншоты



Последний раз редактировалось: Klёпa (2014-07-07 19:01), всего редактировалось 12 раз(а)
[Профиль] [ЛС]

Mia2323

Стаж: 3 года

Сообщений: 71

Пост 15-Май-2014 19:22 (спустя 2 часа 9 минут)

[Цитировать]

Спасибо :))
[Профиль] [ЛС]

Klёпa ®

Стаж: 3 года 2 месяца

Сообщений: 906

Пост 16-Май-2014 19:30 (спустя 1 день)

[Цитировать]

Добавлена 2 серия!
[Профиль] [ЛС]

Mia2323

Стаж: 3 года

Сообщений: 71

Пост 16-Май-2014 20:15 (спустя 45 минут)

[Цитировать]

большое вам спасибо :))
[Профиль] [ЛС]

Klёпa ®

Стаж: 3 года 2 месяца

Сообщений: 906

Пост 20-Май-2014 21:18 (спустя 4 дня)

[Цитировать]

Добавлены 3-6 серии!
[Профиль] [ЛС]

Mia2323

Стаж: 3 года

Сообщений: 71

Пост 20-Май-2014 21:32 (спустя 14 минут)

[Цитировать]

огромное вам спасибо :)))
[Профиль] [ЛС]

Klёпa ®

Стаж: 3 года 2 месяца

Сообщений: 906

Пост 23-Май-2014 21:52 (спустя 3 дня)

[Цитировать]

Добавлена 7 серия!
[Профиль] [ЛС]

Klёпa ®

Стаж: 3 года 2 месяца

Сообщений: 906

Пост 27-Май-2014 20:47 (спустя 3 дня)

[Цитировать]

Добавлена 8 серия!
[Профиль] [ЛС]

Mia2323

Стаж: 3 года

Сообщений: 71

Пост 29-Май-2014 20:18 (спустя 1 день 23 часа)

[Цитировать]

огромное спасибо :)))
[Профиль] [ЛС]

Klёпa ®

Стаж: 3 года 2 месяца

Сообщений: 906

Пост 03-Июн-2014 19:37 (спустя 4 дня)

[Цитировать]

Добавлена 9 серия!
[Профиль] [ЛС]

Klёпa ®

Стаж: 3 года 2 месяца

Сообщений: 906

Пост 09-Июн-2014 20:10 (спустя 6 дней)

[Цитировать]

Добавлена 10 серия!
[Профиль] [ЛС]

Klёпa ®

Стаж: 3 года 2 месяца

Сообщений: 906

Пост 19-Июн-2014 21:28 (спустя 10 дней)

[Цитировать]

Добавлены 11-12 серии!
[Профиль] [ЛС]

Klёпa ®

Стаж: 3 года 2 месяца

Сообщений: 906

Пост 24-Июн-2014 01:14 (спустя 4 дня)

[Цитировать]

Добавлена 13 серия!
[Профиль] [ЛС]

Klёпa ®

Стаж: 3 года 2 месяца

Сообщений: 906

Пост 24-Июн-2014 20:12 (спустя 18 часов)

[Цитировать]

Добавлена 14 серия!
[Профиль] [ЛС]

Klёпa ®

Стаж: 3 года 2 месяца

Сообщений: 906

Пост 01-Июл-2014 20:46 (спустя 7 дней)

[Цитировать]

Добавлена 15 серия!
[Профиль] [ЛС]
Показать сообщения:    
Ответить на тему

Текущее время: Сегодня 18:39

Часовой пояс: GMT



Вы не можете начинать темы
Вы не можете отвечать на сообщения
Вы не можете редактировать свои сообщения
Вы не можете удалять свои сообщения
Вы не можете голосовать в опросах
Вы не можете прикреплять файлы к сообщениям
Вы не можете скачивать файлы