Жалобы на работу трекера ! прошу сюда :)

Доктор-чужестранец / Dakteo Yibangin / Doctor Stranger [20/20] (Jin Hyuk) [2014 г., медицина, драма, HDTVRip] [RAW] [360p] DVO GREEN TEA

Страницы :  1, 2, 3, 4  След.

Ответить на тему
 
Автор Сообщение

Klёпa ®

Стаж: 3 года 2 месяца

Сообщений: 906

Пост 15-Май-2014 19:37

[Цитировать]

Доктор-чужестранец
Dakteo Yibangin / Doctor Stranger

Год выпуска: 2014
Страна: Южная Корея
Жанр: Медицина, драма
Продолжительность: 20 серий по ~60 мин.
Серий: 1-20 (20)-Озвучивание: двухголосое (закадровое) - Людмила Линькова и Дмитрий Чепусов
Сэмпл: http://yadi.sk/d/UiQRdMxGRAr8d-Режиссёр: Джин Хёк (Jin Hyuk / 진혁)
В ролях:
Пак Хэ Чжин (Park Hae Jin / 박해진) - Han Jae Joon
Кан Со Ра (Kang So Ra / 강소라) - Oh Soo Hyun
Ли Чон Сок (Lee Jong Suk / 이종석) - Park Hoon
Чжин Се Ён (Jin Se Yun / 진세연) - Song Jae Hee / Han Seung Hee
Юн Бо Ра (Yoon Bo Ra / 윤보라) - Lee Chung Yi
Ким Сан Чжун (Kim Sang Joong / 김상중) - Park Cheol
Ким Сан Хо (Kim Sang Ho / 김상호) - Yang Jeong Han
Чхон Хо Джин (Chun Ho Jin / 천호진) - Jang Seok Joo
Хван Дон Чжу (Hwang Dong Joo / 황동주) - Geum Bong Hyun
Чхве Чжон У (Choi Jung Woo / 최정우) - Moon Hyung Wook
и др.-Описание:
В детстве Пак Хун был похищен и отправлен в Северную Корею вместе со своим отцом. Повзрослев, он принимает решение пойти по стопам отца и выучиться на врача. Пак Хун становится гениальным кардиохирургом. Вскоре он сбегает из Северной Кореи в Южную.
В Южной Корее он устраивается на работу в престижную больницу Университета Донву. Однако, находится он тут в статусе аутсайдера. Но Пак Хуна это мало волнует, его цель - заработать как можно больше денег, чтобы вывести из Северной Кореи свою возлюбленную.-Доп.информация:
Релиз группы "GREEN TEA"
Озвучивается при поддержке зрителей GREEN TEA
Перевод: Фансаб-группа "BiG BOSS"
Работа со звуком: Людмила Линькова
Оформление постера: Елена Горборукова-Качество видео: DTVRip
Формат: AVI
Видео кодек: XviD
Аудио кодек: MP3
Видео: 624x352, ~1300 Кбит/с, 29.97 fps
Аудио: 128 Кбит/с, 48.0 КHz, 2 канала
Саундтрек к дораме Доктор-чужестранец
!!! Альтернативная раздача: 720p (AVI, H264)02.08.2014 - добавлена 20 серия.

MediaInfo

Код:
General
Complete name                            : [GREEN TEA] Doctor.Stranger_E01.avi
Format                                   : AVI
Format/Info                              : Audio Video Interleave
File size                                : 611 MiB
Duration                                 : 59mn 16s
Overall bit rate                         : 1 442 Kbps
Movie name                               : Доктор-чужестранец / Doctor Stranger (2014)
Writing application                      : VirtualDubMod 1.5.10.2 (build 2542/release)
Writing library                          : VirtualDubMod build 2542/release
Video
ID                                       : 0
Format                                   : MPEG-4 Visual
Format profile                           : Advanced Simple@L5
Format settings, BVOP                    : 1
Format settings, QPel                    : No
Format settings, GMC                     : No warppoints
Format settings, Matrix                  : Default (H.263)
Codec ID                                 : XVID
Codec ID/Hint                            : XviD
Duration                                 : 59mn 16s
Bit rate                                 : 1 302 Kbps
Width                                    : 624 pixels
Height                                   : 352 pixels
Display aspect ratio                     : 16:9
Frame rate                               : 29.970 fps
Color space                              : YUV
Chroma subsampling                       : 4:2:0
Bit depth                                : 8 bits
Scan type                                : Progressive
Compression mode                         : Lossy
Bits/(Pixel*Frame)                       : 0.198
Stream size                              : 552 MiB (90%)
Writing library                          : XviD 1.2.1 (UTC 2008-12-04)
Audio
ID                                       : 1
Format                                   : MPEG Audio
Format version                           : Version 1
Format profile                           : Layer 3
Mode                                     : Joint stereo
Mode extension                           : MS Stereo
Codec ID                                 : 55
Codec ID/Hint                            : MP3
Duration                                 : 59mn 16s
Bit rate mode                            : Constant
Bit rate                                 : 128 Kbps
Channel(s)                               : 2 channels
Sampling rate                            : 48.0 KHz
Compression mode                         : Lossy
Delay relative to video                  : 696ms
Stream size                              : 54.3 MiB (9%)
Alignment                                : Split accross interleaves
Interleave, duration                     : 33 ms (1.00 video frame)
Interleave, preload duration             : 504 ms
Title                                    : GREEN TEA DVO (Людмила Линькова и Дмитрий Чепусов)


Последний раз редактировалось: Klёпa (2014-08-02 19:09), всего редактировалось 20 раз(а)
[Профиль] [ЛС]

Cinderella

Стаж: 2 года 6 месяцев

Сообщений: 2

Пост 17-Май-2014 14:33 (спустя 1 день 18 часов)

[Цитировать]

Здрасти всем)) я тут новенькая подскажите плиз как от сюда скачать сериалы?????????? Заранее пасибки))
[Профиль] [ЛС]

Tainted-love

Стаж: 2 года 11 месяцев

Сообщений: 1180

Пост 17-Май-2014 20:59 (спустя 6 часов)

[Цитировать]

Поздравляю с началом проекта! Удачки вам друзья!
[Профиль] [ЛС]

Nas

Стаж: 3 года 10 месяцев

Сообщений: 372

Пост 19-Май-2014 16:08 (спустя 1 день 19 часов)

[Цитировать]

Cinderella, http://tracker.green-tea.tv/viewtopic.php?t=72
[Профиль] [ЛС]

Klёпa ®

Стаж: 3 года 2 месяца

Сообщений: 906

Пост 19-Май-2014 23:20 (спустя 7 часов)

[Цитировать]

Добавлены 2-3 серии!
[Профиль] [ЛС]

Cinderella

Стаж: 2 года 6 месяцев

Сообщений: 2

Пост 20-Май-2014 14:32 (спустя 15 часов)

[Цитировать]

спасибо большое но я не смогла =(
[Профиль] [ЛС]

Tainted-love

Стаж: 2 года 11 месяцев

Сообщений: 1180

Пост 20-Май-2014 17:06 (спустя 2 часа 33 минуты)

[Цитировать]

Очень спасибо! Ждем продолжения.
[Профиль] [ЛС]

Klёпa ®

Стаж: 3 года 2 месяца

Сообщений: 906

Пост 23-Май-2014 14:21 (спустя 2 дня 21 час)

[Цитировать]

Добавлена 4 серия!
[Профиль] [ЛС]

Klёпa ®

Стаж: 3 года 2 месяца

Сообщений: 906

Пост 27-Май-2014 23:07 (спустя 4 дня)

[Цитировать]

NB: Торрент будет обновлён вечером !!!
[Профиль] [ЛС]

Klёпa ®

Стаж: 3 года 2 месяца

Сообщений: 906

Пост 28-Май-2014 18:51 (спустя 19 часов)

[Цитировать]

Добавлена 5 серия!
[Профиль] [ЛС]

Klёпa ®

Стаж: 3 года 2 месяца

Сообщений: 906

Пост 01-Июн-2014 20:01 (спустя 4 дня)

[Цитировать]

Добавлена 6 серия!
[Профиль] [ЛС]

Klёпa ®

Стаж: 3 года 2 месяца

Сообщений: 906

Пост 11-Июн-2014 21:52 (спустя 10 дней)

[Цитировать]

Добавлена 7 серия!
[Профиль] [ЛС]

Klёпa ®

Стаж: 3 года 2 месяца

Сообщений: 906

Пост 17-Июн-2014 19:24 (спустя 5 дней)

[Цитировать]

Добавлены 8-9 серии!
[Профиль] [ЛС]

Klёпa ®

Стаж: 3 года 2 месяца

Сообщений: 906

Пост 17-Июн-2014 23:24 (спустя 4 часа)

[Цитировать]

Добавлена 10 серия!
[Профиль] [ЛС]

Klёпa ®

Стаж: 3 года 2 месяца

Сообщений: 906

Пост 19-Июн-2014 20:58 (спустя 1 день 21 час)

[Цитировать]

Добавлена 11 серия!
[Профиль] [ЛС]
Показать сообщения:    
Ответить на тему

Текущее время: Сегодня 18:34

Часовой пояс: GMT



Вы не можете начинать темы
Вы не можете отвечать на сообщения
Вы не можете редактировать свои сообщения
Вы не можете удалять свои сообщения
Вы не можете голосовать в опросах
Вы не можете прикреплять файлы к сообщениям
Вы не можете скачивать файлы