Жалобы на работу трекера ! прошу сюда :)

Роман ведьмы / Manyeoeui Yeonae / Witch's Romance [16/16] (Lee Jung Hyo) [2014, романтика, комедия, HDTVRip] [RAW] [720p] DVO GREEN TEA

Страницы :  1, 2, 3  След.

Ответить на тему
 
Автор Сообщение

Klёпa ®

Стаж: 3 года 2 месяца

Сообщений: 906

Пост 30-Май-2014 21:29

[Цитировать]

Роман ведьмы (Ведьмин роман)
Manyeoui Yeonae / Witch's Romance (A Witch's Love)

Год выпуска: 2014
Страна: Южная Корея
Жанр: романтика, комедия
Продолжительность: 16 серий по ~60 мин.
Серий: 1-16 (16)-Озвучивание: двухголосое (закадровое) - Макс Коллапс, Анна Полевская, стажёр группы "Green Tea", (1-2 серии) и Елена Егорова (с 3-ей серии).
Сэмпл: http://yadi.sk/d/udAxtJYSRkRVM-Режиссёр: Ли Чжон Хё (Lee Jung Hyo / 이정효)
Сценаристы: Ban Ki Ri (반기리), Lee Sun Jung (이선정)
В ролях:
Ом Чжон Хва (Uhm Jung Hwa / 엄정화) - Пан Джи Ён
Пак Со Джун (Park Seo Joon / 박서준) - Юн Дон Ха
Хан Дже Сок (Han Jae Suk / 한재석) - Но Ши Хун (фотограф, бывший жених Чжи Ён)
Чжон Ён Чжу (Jung Yeon Joo / 정연주) - Чон Ын Чхэ (интерн в "Trouble Maker")
Чжу Джин Мо (Joo Jin Mo / 주진모) - Квон Хён Соп (начальник Чжи Ён)
Ян Хи Гён (Yang Hee Kyung / 양희경) - Пак Мён Чжа (мать Чжи Ён)
Ра Ми Ран (Ra Mi Ran / 라미란) - Пэк На Рэ (подруга Чжи Ён)
Ли Се Чхан (Lee Se Chang / 이세창) - Кан Мин Гу (муж На Рэ)
и др.-Описание:
Пан Чжи Ён одинокая 39-летняя женщина. Она работает репортёром, и всю себя посвятила работе. Из-за чего её на работе частенько называют "ведьмой". Она не верит в настоящую любовь из-за печального прошлого опыта, когда её парень исчез накануне свадьбы. Юн Дон Ха 25-летний молодой человек, который работает курьером в центре услуг у своего друга. Его контора берётся за любые поручения: она может прислать кого-то в костюме Санта Клауса или обеспечить безопасность для айдола. Юн Дон Ха похож на счастливого парня, но на самом деле он потерял свою подругу в результате несчастного случая.
© Ksilnew-Доп.информация:
Релиз группы "GREEN TEA"
Перевод: фансаб-группа "BiG BOSS"
Тайминг: Эльза Шапарелли (с 14 серии)
Работа со звуком: Ольга Гринтиева (1-8 серии) и Альберт Мингалеев (с 9 серии)
Координация проекта: Екатерина Амальфи
Оформление постера: Елена Горборукова-Качество видео: HDTVRip
Формат: AVI
Видео кодек: H264
Аудио кодек: MP3
Видео: 1280x720, ~2500 Кбит/с, 29.97 fps
Аудио: 192 Кбит/с, 48.0 КHz, 2 канала
ОСТ к дораме Роман ведьмы
!!! Альтернативная раздача: 400p (AVI, XviD)22.10.2014 - добавлена 16 серия (заключительная).

MediaInfo

Код:
General
Complete name                            : [GREEN TEA] Witсh's.Rоmаnсe (720р)_01.avi
Format                                   : AVI
Format/Info                              : Audio Video Interleave
File size                                : 1.17 GiB
Duration                                 : 1h 1mn
Overall bit rate                         : 2 714 Kbps
Movie name                               : Роман ведьмы / Witсh's Rоmаnce (2014)
Writing application                      : VirtualDubMod 1.5.10.2 (build 2542/release)
Writing library                          : VirtualDubMod build 2542/release
Video
ID                                       : 0
Format                                   : AVC
Format/Info                              : Advanced Video Codec
Format profile                           : High@L4.1
Format settings, CABAC                   : Yes
Format settings, ReFrames                : 2 frames
Codec ID                                 : h264
Duration                                 : 1h 1mn
Bit rate                                 : 2 510 Kbps
Nominal bit rate                         : 3 025 Kbps
Width                                    : 1 280 pixels
Height                                   : 720 pixels
Display aspect ratio                     : 16:9
Frame rate                               : 29.970 fps
Color space                              : YUV
Chroma subsampling                       : 4:2:0
Bit depth                                : 8 bits
Scan type                                : Progressive
Bits/(Pixel*Frame)                       : 0.091
Stream size                              : 1.08 GiB (92%)
Writing library                          : x264 core 130 r2273 b3065e6
Encoding settings                        : cabac=1 / ref=1 / deblock=1:0:0 / analyse=0x3:0x113 / me=hex / subme=7 / psy=1 / psy_rd=1.00:0.00 / mixed_ref=0 / me_range=16 / chroma_me=1 / trellis=1 / 8x8dct=1 / cqm=0 / deadzone=21,11 / fast_pskip=1 / chroma_qp_offset=-2 / threads=6 / lookahead_threads=1 / sliced_threads=0 / nr=0 / decimate=1 / interlaced=0 / bluray_compat=0 / constrained_intra=0 / bframes=1 / b_pyramid=0 / b_adapt=1 / b_bias=0 / direct=1 / weightb=1 / open_gop=0 / weightp=2 / keyint=20 / keyint_min=1 / scenecut=40 / intra_refresh=0 / rc_lookahead=20 / rc=abr / mbtree=1 / bitrate=3025 / ratetol=1.0 / qcomp=0.60 / qpmin=0 / qpmax=69 / qpstep=4 / ip_ratio=1.40 / aq=1:1.00
Audio
ID                                       : 1
Format                                   : MPEG Audio
Format version                           : Version 1
Format profile                           : Layer 3
Mode                                     : Joint stereo
Codec ID                                 : 55
Codec ID/Hint                            : MP3
Duration                                 : 1h 1mn
Bit rate mode                            : Constant
Bit rate                                 : 192 Kbps
Channel(s)                               : 2 channels
Sampling rate                            : 48.0 KHz
Compression mode                         : Lossy
Stream size                              : 84.6 MiB (7%)
Alignment                                : Aligned on interleaves
Interleave, duration                     : 33 ms (1.00 video frame)
Interleave, preload duration             : 504 ms
Title                                    : GREEN TEA DVO (Макс Коллапс и Анна Полевская)

Скриншоты




Последний раз редактировалось: Klёпa (2014-10-22 20:50), всего редактировалось 17 раз(а)
[Профиль] [ЛС]

EL_1991

Стаж: 3 года 10 месяцев

Сообщений: 36

Пост 02-Июн-2014 09:07 (спустя 2 дня 11 часов)

[Цитировать]

С началом нового проекта!Спасибо!
Очень понравилась первая серия,как теперь дальше то жить?Так досмотреть хочется.
P.S. А где можно OST найти?
[Профиль] [ЛС]

dusy78

Стаж: 3 года 10 месяцев

Сообщений: 1005

Откуда: Россия

Пост 02-Июн-2014 11:35 (спустя 2 часа 27 минут)

[Цитировать]

EL_1991, ост я поищу обязательно!
[Профиль] [ЛС]

Klёпa ®

Стаж: 3 года 2 месяца

Сообщений: 906

Пост 17-Июн-2014 21:16 (спустя 15 дней)

[Цитировать]

Добавлена 2 серия!
[Профиль] [ЛС]

a1exander

Стаж: 3 года 1 месяц

Сообщений: 38

Пост 12-Июл-2014 15:34 (спустя 24 дня)

[Цитировать]

а почему сериал не продолжается, такой классный сериал, один из лучших в этом году и что-то заглохло((
[Профиль] [ЛС]

Амальфи

Стаж: 3 года 10 месяцев

Сообщений: 264

Пост 12-Июл-2014 19:43 (спустя 4 часа)

[Цитировать]

a1exander, ничего не заглохло... произошла замена голоса женского, потом она болела... а сейчас у звуковика лежит серия, а я ему дозвониться не могу...
[Профиль] [ЛС]

Klёпa ®

Стаж: 3 года 2 месяца

Сообщений: 906

Пост 15-Июл-2014 16:05 (спустя 2 дня 20 часов)

[Цитировать]

Добавлены 3-4 серии!
[Профиль] [ЛС]

Хиджиката Тоширо

Стаж: 3 года 9 месяцев

Сообщений: 54

Пост 23-Июл-2014 11:47 (спустя 7 дней)

[Цитировать]

спасибо ^_^
[Профиль] [ЛС]

Klёпa ®

Стаж: 3 года 2 месяца

Сообщений: 906

Пост 23-Июл-2014 18:24 (спустя 6 часов)

[Цитировать]

Добавлена 5 серия!
[Профиль] [ЛС]

Klёпa ®

Стаж: 3 года 2 месяца

Сообщений: 906

Пост 02-Авг-2014 07:47 (спустя 9 дней)

[Цитировать]

Добавлена 6 серия!
[Профиль] [ЛС]

Klёпa ®

Стаж: 3 года 2 месяца

Сообщений: 906

Пост 09-Авг-2014 15:26 (спустя 7 дней)

[Цитировать]

Добавлена 7 серия!
[Профиль] [ЛС]

Klёпa ®

Стаж: 3 года 2 месяца

Сообщений: 906

Пост 19-Авг-2014 19:15 (спустя 10 дней)

[Цитировать]

Добавлены 8-9 серии!
[Профиль] [ЛС]

Klёпa ®

Стаж: 3 года 2 месяца

Сообщений: 906

Пост 25-Авг-2014 17:33 (спустя 5 дней)

[Цитировать]

Добавлена 10 серия!
[Профиль] [ЛС]

EL_1991

Стаж: 3 года 10 месяцев

Сообщений: 36

Пост 01-Сен-2014 12:40 (спустя 6 дней)

[Цитировать]

До сих пор нигде не могу найти OST(((
[Профиль] [ЛС]

Klёпa ®

Стаж: 3 года 2 месяца

Сообщений: 906

Пост 02-Сен-2014 17:43 (спустя 1 день 5 часов)

[Цитировать]

Добавлена 11 серия!
[Профиль] [ЛС]
Показать сообщения:    
Ответить на тему

Текущее время: Сегодня 03:55

Часовой пояс: GMT



Вы не можете начинать темы
Вы не можете отвечать на сообщения
Вы не можете редактировать свои сообщения
Вы не можете удалять свои сообщения
Вы не можете голосовать в опросах
Вы не можете прикреплять файлы к сообщениям
Вы не можете скачивать файлы