Жалобы на работу трекера ! прошу сюда :)

Роман ведьмы / Manyeoeui Yeonae / Witch's Romance [16/16] (Lee Jung Hyo) [2014, романтика, комедия, HDRip] [RAW] [400p] DVO GREEN TEA

Страницы :  1, 2, 3, 4  След.

Ответить на тему
 
Автор Сообщение

Klёпa ®

Стаж: 3 года 2 месяца

Сообщений: 906

Пост 30-Май-2014 21:37

[Цитировать]

Роман ведьмы (Ведьмин роман)
Manyeoui Yeonae / Witch's Romance (A Witch's Love)

Год выпуска: 2014
Страна: Южная Корея
Жанр: романтика, комедия
Продолжительность: 16 серий по ~60 мин.
Серий: 1-16 (16)-Озвучивание: двухголосое (закадровое) - Макс Коллапс, Анна Полевская, стажёр группы "Green Tea", (1-2 серии) и Елена Егорова (с 3-ей серии).
Сэмпл: http://yadi.sk/d/_N03fZIMRkfWv-Режиссёр: Ли Чжон Хё (Lee Jung Hyo / 이정효)
Сценаристы: Ban Ki Ri (반기리), Lee Sun Jung (이선정)
В ролях:
Ом Чжон Хва (Uhm Jung Hwa / 엄정화) - Пан Чжи Ён
Пак Со Джун (Park Seo Joon / 박서준) - Юн Дон Ха
Хан Дже Сок (Han Jae Suk / 한재석) - Но Ши Хун (фотограф, бывший жених Чжи Ён)
Чжон Ён Чжу (Jung Yeon Joo / 정연주) - Чон Ын Чхэ (интерн в "Trouble Maker")
Чжу Джин Мо (Joo Jin Mo / 주진모) - Квон Хён Соп (начальник Чжи Ён)
Ян Хи Гён (Yang Hee Kyung / 양희경) - Пак Мён Чжа (мать Чжи Ён)
Ра Ми Ран (Ra Mi Ran / 라미란) - Пэк На Рэ (подруга Чжи Ён)
Ли Се Чхан (Lee Se Chang / 이세창) - Кан Мин Гу (муж На Рэ)
и др.-Описание:
Пан Чжи Ён одинокая 39-летняя женщина. Она работает репортёром, и всю себя посвятила работе. Из-за чего её на работе частенько называют "ведьмой". Она не верит в настоящую любовь из-за печального прошлого опыта, когда её парень исчез накануне свадьбы. Юн Дон Ха 25-летний молодой человек, который работает курьером в центре услуг у своего друга. Его контора берётся за любые поручения: она может прислать кого-то в костюме Санта Клауса или обеспечить безопасность для айдола. Юн Дон Ха похож на счастливого парня, но на самом деле он потерял свою подругу в результате несчастного случая.
© Ksilnew-Доп.информация:
Релиз группы "GREEN TEA"
Перевод: фансаб-группа "BiG BOSS"
Тайминг: Эльза Шапарелли (с 14 серии)
Работа со звуком: Ольга Гринтиева (1-8 серии) и Альберт Мингалеев (с 9 серии)
Координация проекта: Екатерина Амальфи
Оформление постера: Елена Горборукова-Качество видео: HDRip
Формат: AVI
Видео кодек: XviD
Аудио кодек: MP3
Видео: 720x400, ~1200 Кбит/с, 29.97 fps
Аудио: 192 Кбит/с, 48.0 КHz, 2 канала
ОСТ к дораме Роман ведьмы
!!! Альтернативная раздача: 720p (AVI, XviD)22.10.2014 - добавлена 16 серия (заключительная).

MediaInfo

Код:
General
Complete name                            : [GREEN TEA] Witсh's.Rоmаncе_E01.avi
Format                                   : AVI
Format/Info                              : Audio Video Interleave
File size                                : 618 MiB
Duration                                 : 1h 1mn
Overall bit rate                         : 1 402 Kbps
Movie name                               : Роман ведьмы / Witch's Romance (2014)
Writing application                      : VirtualDubMod 1.5.10.2 (build 2542/release)
Writing library                          : VirtualDubMod build 2542/release
Video
ID                                       : 0
Format                                   : MPEG-4 Visual
Format profile                           : Advanced Simple@L5
Format settings, BVOP                    : 2
Format settings, QPel                    : No
Format settings, GMC                     : No warppoints
Format settings, Matrix                  : Default (MPEG)
Codec ID                                 : XVID
Codec ID/Hint                            : XviD
Duration                                 : 1h 1mn
Bit rate                                 : 1 198 Kbps
Width                                    : 720 pixels
Height                                   : 400 pixels
Display aspect ratio                     : 16:9
Frame rate                               : 29.970 fps
Color space                              : YUV
Chroma subsampling                       : 4:2:0
Bit depth                                : 8 bits
Scan type                                : Progressive
Compression mode                         : Lossy
Bits/(Pixel*Frame)                       : 0.139
Stream size                              : 528 MiB (85%)
Writing library                          : XviD 1.2.1 (UTC 2008-12-04)
Audio
ID                                       : 1
Format                                   : MPEG Audio
Format version                           : Version 1
Format profile                           : Layer 3
Mode                                     : Joint stereo
Codec ID                                 : 55
Codec ID/Hint                            : MP3
Duration                                 : 1h 1mn
Bit rate mode                            : Constant
Bit rate                                 : 192 Kbps
Channel(s)                               : 2 channels
Sampling rate                            : 48.0 KHz
Compression mode                         : Lossy
Stream size                              : 84.6 MiB (14%)
Alignment                                : Aligned on interleaves
Interleave, duration                     : 33 ms (1.00 video frame)
Interleave, preload duration             : 504 ms
Title                                    : GREEN TEA DVO (Макс Коллапс и Анна Полевская)

Скриншоты




Последний раз редактировалось: Klёпa (2014-10-22 19:47), всего редактировалось 16 раз(а)
[Профиль] [ЛС]

j_777

Стаж: 3 года 9 месяцев

Сообщений: 302

Пост 31-Май-2014 05:24 (спустя 7 часов)

[Цитировать]

Спасибо огромное, что взялись за этот проект! Легкой и быстрой озвучки вам!
[Профиль] [ЛС]

Kairon

Стаж: 3 года 1 месяц

Сообщений: 1

Откуда: Алматы

Пост 31-Май-2014 09:31 (спустя 4 часа)

[Цитировать]

Поддерживаю:)!!!
[Профиль] [ЛС]

hlamovnik

Стаж: 3 года 1 месяц

Сообщений: 1

Пост 31-Май-2014 09:56 (спустя 24 минуты)

[Цитировать]

Огромное спасибо! Удачи!!!
[Профиль] [ЛС]

rodqer

Стаж: 3 года 10 месяцев

Сообщений: 417

Откуда: кемерово

Пост 31-Май-2014 16:23 (спустя 6 часов)

[Цитировать]

спасибо вам огромное ))))))))))))))))))
[Профиль] [ЛС]

a1exander

Стаж: 3 года 1 месяц

Сообщений: 38

Пост 31-Май-2014 19:14 (спустя 2 часа 51 минута)

[Цитировать]

интересно
[Профиль] [ЛС]

Ланочка10_83

Стаж: 3 года 1 месяц

Сообщений: 131

Пост 02-Июн-2014 02:07 (спустя 1 день 6 часов)

[Цитировать]

Спасибо!!! :)
[Профиль] [ЛС]

a1exander

Стаж: 3 года 1 месяц

Сообщений: 38

Пост 08-Июн-2014 14:12 (спустя 6 дней)

[Цитировать]

первая серия понравилась))
[Профиль] [ЛС]

Klёпa ®

Стаж: 3 года 2 месяца

Сообщений: 906

Пост 17-Июн-2014 21:17 (спустя 9 дней)

[Цитировать]

Добавлена 2 серия!
[Профиль] [ЛС]

a1exander

Стаж: 3 года 1 месяц

Сообщений: 38

Пост 18-Июн-2014 19:46 (спустя 22 часа)

[Цитировать]

вторая серия ещё лучше первой)
[Профиль] [ЛС]

Anyaaaa

Стаж: 2 года 11 месяцев

Сообщений: 4

Откуда: Нижний Новгород - Анапа

Пост 14-Июл-2014 07:50 (спустя 25 дней)

[Цитировать]

Дорама интересная :)
Не бросайте пожалуйста этот проект :с

_________________
Помни: рано или поздно твой сын последует твоему примеру, а не твоим советам.
[Профиль] [ЛС]

Klёпa ®

Стаж: 3 года 2 месяца

Сообщений: 906

Пост 15-Июл-2014 16:06 (спустя 1 день 8 часов)

[Цитировать]

Добавлены 3-4 серии!
[Профиль] [ЛС]

Klёпa ®

Стаж: 3 года 2 месяца

Сообщений: 906

Пост 23-Июл-2014 18:22 (спустя 8 дней)

[Цитировать]

Добавлена 5 серия!
[Профиль] [ЛС]

a1exander

Стаж: 3 года 1 месяц

Сообщений: 38

Пост 24-Июл-2014 07:28 (спустя 13 часов)

[Цитировать]

уже качаю))
[Профиль] [ЛС]

Klёпa ®

Стаж: 3 года 2 месяца

Сообщений: 906

Пост 02-Авг-2014 07:49 (спустя 9 дней)

[Цитировать]

Добавлена 6 серия!
[Профиль] [ЛС]
Показать сообщения:    
Ответить на тему

Текущее время: Сегодня 03:54

Часовой пояс: GMT



Вы не можете начинать темы
Вы не можете отвечать на сообщения
Вы не можете редактировать свои сообщения
Вы не можете удалять свои сообщения
Вы не можете голосовать в опросах
Вы не можете прикреплять файлы к сообщениям
Вы не можете скачивать файлы