Жалобы на работу трекера ! прошу сюда :)

Класс королевы / Yeowangui Gyosil / The Queen's Classroom (Lee Dong Yoon) [16/16] [2013 г., Драма, школа, TVRip] [360] VO GREEN TEA

Страницы :  1, 2  След.

Ответить на тему
 
Автор Сообщение

dusy78 ®

Стаж: 3 года 10 месяцев

Сообщений: 1005

Откуда: Россия

Пост 13-Июн-2014 14:45

[Цитировать]

Класс королевы / Yeowangui Gyosil / The Queen's Classroom Год выпуска: 2013
Страна: Южная Корея
Жанр: Драма, школа
Продолжительность: 16/16
Озвучивание: Екатерина Юрьева
СЕМПЛ: https://yadi.sk/d/xVHMYVT_THQo3
Режиссер: Lee Dong Yoon
В ролях:
Учителя начальной школы Сандыль:
Ко Хён Чжон в роли учителя Ма Ё Чжин
Юн Ё Чжон в роли директора Ён Хён Чжа
Ли Ки Ён в роли Сон Ён Манна
Чон Сок Ён в роли Ку Чжи Сона
Чхве Юн Ён в роли Ян Мин Хи
Чжин Кён в роли Чон Хва Син
Рики Ким - Джастин
Ученики 3 группы 6 класса:
Ким Хян Ги в роли Сим Ха На
Чон Бо Гын в роли О Дон Го
Ким Сэ Рон в роли Ким Со Хён
Со Син Э в роли Ын Бо Ми
Ли Ён Ю в роли Ко На Ри
Чу Э Чжин в роли Хан Сон Ён
Чон Чжи Ин в роли Сон Хва Чжон
Описание: Дорама рассказывает о Ма Ё Чжин - учителе 6 класса начальной школы, и об учениках этого класса, которые далеко не в восторге от методов преподавания своего учителя. Ведь учитель Ма - заядлая реалистка, и поэтому она всячески старается показать своим ученикам, как трудно жить в реальном мире. Вместо того чтобы встать на защиту своих учеников, она часто их обманывает, плетёт интриги и шантажирует. Весь 6 класс восстаёт против непонятных педагогических приёмов учителя Ма. Иногда дети предают друг друга, иногда помогают и постепенно познают тайны реальности, составляя своё представление о мире. Зрители несомненно будут тронуты сильными эмоциями и захватывающим сюжетом дорамы, который заставит их иначе взглянуть на значение истинного образования и задуматься о том, что же такое счастье.
Перевод описания: Октябрина
Доп. информация:
Перевод: фансаб-группы Мания
Релиз: группа GREEN TEA
Оформление постера: Дина Фаткуллина
Работа со звуком: Екатерина Юрьева
Качество: HDTVRip
Формат: AVI
Видео кодек: XviD
Аудио кодек: MP3
Видео: 624x352, ~1300 Кбит/с, 29.97 fps
Аудио: RUS(int), MP3, 2ch, 48.0 KHz, 192 Kbps
Альтернативная раздача 1280х720
Ост к дораме: Класс королевы

Скриншоты

MediaInfo

General
Complete name : J:\Архив GREEN TEA\[GREEN TEA] Класс королевы_360р\[GREEN TEA] Класс королевы_360р_01.avi
Format : AVI
Format/Info : Audio Video Interleave
File size : 683 MiB
Duration : 1h 3mn
Overall bit rate : 1 506 Kbps
Writing application : Lavf54.63.104
Video
ID : 0
Format : xvid
Codec ID : xvid
Duration : 1h 3mn
Bit rate : 1 300 Kbps
Width : 624 pixels
Height : 352 pixels
Display aspect ratio : 16:9
Frame rate : 29.970 fps
Bits/(Pixel*Frame) : 0.197
Stream size : 590 MiB (86%)
Audio
ID : 1
Format : MPEG Audio
Format version : Version 1
Format profile : Layer 3
Mode : Joint stereo
Codec ID : 55
Codec ID/Hint : MP3
Duration : 1h 3mn
Bit rate mode : Constant
Bit rate : 192 Kbps
Channel(s) : 2 channels
Sampling rate : 48.0 KHz
Compression mode : Lossy
Stream size : 87.2 MiB (13%)
Alignment : Aligned on interleaves
Interleave, duration : 24 ms (0.72 video frame)

Раздача ведётся путём добавления новых серий

при каждом добавлении серии создаётся новый торрент. Чтобы начать докачку новой серии, пользователям необходимо сделать следующее:
(1) остановить скачивание,
(2) удалить старый торрент у себя из клиента (старые серии удалять не надо),
(3) скачать новый торрент и запустить его у себя в клиенте вместо старого, при этом указать клиенту путь в старую папку куда и должно происходить скачивание новых серий.
Ваш клиент при этом должен произвести хеширование (проверку) старой папки (если не производит сам - помогите ему сделать это), и будет докачивать только те серии которых у вас ещё нет. Старые серии при этом не удаляются, а продолжают раздаваться!
Eсли вы уже удалили старые серии, то предотвратить повторную закачку старых серий можно, отжав галочку в соответствующих местах при запуске нового торрента. По возможности, желательно не удалять старые серии как можно дольше чтобы релизёр не только продолжал раздавать старые серии, а смог сконцентрироваться на новых.


Последний раз редактировалось: dusy78 (2015-12-26 15:32), всего редактировалось 4 раз(а)
[Профиль] [ЛС]

dusy78 ®

Стаж: 3 года 10 месяцев

Сообщений: 1005

Откуда: Россия

Пост 20-Июн-2014 17:18 (спустя 7 дней)

[Цитировать]

Добавлена 2 серия!
[Профиль] [ЛС]

dusy78 ®

Стаж: 3 года 10 месяцев

Сообщений: 1005

Откуда: Россия

Пост 02-Июл-2014 14:36 (спустя 11 дней)

[Цитировать]

Добавлена 3 серия!
[Профиль] [ЛС]

SergeyS

Стаж: 3 года 1 месяц

Сообщений: 3

Пост 08-Авг-2014 18:20 (спустя 1 месяц 6 дней)

[Цитировать]

Уже ведь 6 серий... а почему здесь всё ещё 3?
[Профиль] [ЛС]

Дарья

Стаж: 3 года 10 месяцев

Сообщений: 211

Пост 13-Авг-2014 18:00 (спустя 4 дня)

[Цитировать]

Добавлена 4 и 5 серия!

_________________
[Профиль] [ЛС]

Дарья

Стаж: 3 года 10 месяцев

Сообщений: 211

Пост 16-Авг-2014 11:02 (спустя 2 дня 17 часов)

[Цитировать]

Добавлена 6 серия!

_________________
[Профиль] [ЛС]

Дарья

Стаж: 3 года 10 месяцев

Сообщений: 211

Пост 22-Авг-2014 11:57 (спустя 6 дней)

[Цитировать]

Добавлена 7 и 8 серия!

_________________
[Профиль] [ЛС]

Дарья

Стаж: 3 года 10 месяцев

Сообщений: 211

Пост 29-Авг-2014 15:53 (спустя 7 дней)

[Цитировать]

Добавлена 9 серия!

_________________
[Профиль] [ЛС]

Дарья

Стаж: 3 года 10 месяцев

Сообщений: 211

Пост 10-Сен-2014 08:35 (спустя 11 дней)

[Цитировать]

Добавлена 10-12 серия!

_________________
[Профиль] [ЛС]

Дарья

Стаж: 3 года 10 месяцев

Сообщений: 211

Пост 12-Сен-2014 12:10 (спустя 2 дня 3 часа)

[Цитировать]

Добавлена 13 серия!

_________________
[Профиль] [ЛС]

Дарья

Стаж: 3 года 10 месяцев

Сообщений: 211

Пост 25-Сен-2014 18:52 (спустя 13 дней)

[Цитировать]

Добавлены ВСЕ серия!

_________________
[Профиль] [ЛС]

cerlena

Стаж: 3 года

Сообщений: 25

Пост 25-Сен-2014 19:16 (спустя 24 минуты)

[Цитировать]

Дорама очень понравилась
С первой серии начинаешь сочувствовать детям.
Бедные детишки с такой Ведьмой.
А в последних сериях хочешь, что б и в наших школах были такие учителя как учитель Ма.
[Профиль] [ЛС]

barddimm

Стаж: 2 года 10 месяцев

Сообщений: 2

Пост 29-Сен-2014 06:27 (спустя 3 дня)

[Цитировать]

Да, прикольная. Спасибо за озвучку.
[Профиль] [ЛС]

rodqer

Стаж: 3 года 10 месяцев

Сообщений: 417

Откуда: кемерово

Пост 29-Сен-2014 14:35 (спустя 8 часов)

[Цитировать]

спасибо
[Профиль] [ЛС]

Селена

Стаж: 2 года 8 месяцев

Сообщений: 32

Пост 06-Окт-2014 17:45 (спустя 7 дней)

[Цитировать]

Спасибо
[Профиль] [ЛС]
Показать сообщения:    
Ответить на тему

Текущее время: Сегодня 02:23

Часовой пояс: GMT



Вы не можете начинать темы
Вы не можете отвечать на сообщения
Вы не можете редактировать свои сообщения
Вы не можете удалять свои сообщения
Вы не можете голосовать в опросах
Вы не можете прикреплять файлы к сообщениям
Вы не можете скачивать файлы