Жалобы на работу трекера ! прошу сюда :)

Жду любовь / Looking Forward to Romance / Waiting for love (Lee Eun-Jin) [2013 г., комедия, романтика, HDTVRip] [RAW] [720]

Ответить на тему
 
Автор Сообщение

dusy78 ®

Стаж: 3 года 10 месяцев

Сообщений: 1005

Откуда: Россия

Пост 20-Июн-2014 15:04

[Цитировать]

Жду любовь
Looking Forward to Romance / Waiting for love
Год выпуска: 2013
Страна: Южная Корея
Жанр: комедия, романтика
Продолжительность: 2 / 2
Озвучивание: Екатерина Юрьева и Михаил Чёрный
СЕМПЛ: https://yadi.sk/d/zBV5xYwcUFFuh
Режиссер: Lee Eun-Jin
В ролях:
Daniel Choi (Дэниель Чхве) - Cha Ki-Dae
BoA (BoA) - Joo Yeon-Ae
Kim Ji-Won (Ким Чжи Вон) - Choi Sae-Rom
Siwan (Им Си Ван) - Jung Jin-Kook
Описание: В современном обществе любовь сводит людей с ума. Любовь давно перестала быть частью эмоций. Теперь это игра мозга и разума. Навыки флирта и опыт являются необходимостью, а не дополнением.
Но все-таки, один романтик на планете точно остался! Ён Э пережила жуткое предательство от возлюбленного, из-за чего стала посмешищем всего интернета. Она хочет нормальных отношений. Поэтому и обращается за помощью к пикаперу-ловеласу, который должен консультировать ее посредством чата. Однако, его телефон оказывается совсем у другого человека, который помогает Ён Э разобраться в отношениях на примере своих.
Перевод описания: Grace Elle
Доп. информация:
Перевод: фансаб-группы Мания
Релиз: группа GREEN TEA
Оформление постера: Елена Горборукова
Работа со звуком: Ольга Гринтиева
Качество: HDTVRip
Формат: AVI
Аудио кодек: MP3
Видео: H264, 1280х720, 29.970 fps, ~ 2600 Kbps
Аудио: MP3, 2ch, 48.0 KHz, 192 Kbps
Альтернативная раздача 624х352

Скриншоты

MediaInfo

Format : AVI
Format/Info : Audio Video Interleave
File size : 1.31 GiB
Duration : 1h 6mn
Overall bit rate : 2 822 Kbps
Writing application : VirtualDubMod 1.5.10.2 (build 2542/release)
Writing library : VirtualDubMod build 2542/release
Video
ID : 0
Format : AVC
Format/Info : Advanced Video Codec
Format profile : High@L5.1
Format settings, CABAC : Yes
Format settings, ReFrames : 4 frames
Codec ID : H264
Duration : 1h 6mn
Bit rate : 2 619 Kbps
Nominal bit rate : 2 988 Kbps
Width : 1 280 pixels
Height : 720 pixels
Display aspect ratio : 16:9
Frame rate : 29.970 fps
Color space : YUV
Chroma subsampling : 4:2:0
Bit depth : 8 bits
Scan type : Progressive
Bits/(Pixel*Frame) : 0.095
Stream size : 1.21 GiB (93%)
Writing library : x264 core 116 r2057kMod 0ba8a9c
Encoding settings : cabac=1 / ref=4 / deblock=1:0:0 / analyse=0x3:0x13 / me=umh / subme=7 / psy=1 / fade_compensate=0.00 / psy_rd=1.00:0.00 / mixed_ref=1 / me_range=16 / chroma_me=1 / trellis=1 / 8x8dct=1 / cqm=0 / deadzone=21,11 / fast_pskip=1 / chroma_qp_offset=-2 / threads=4 / sliced_threads=1 / slices=4 / nr=0 / decimate=1 / interlaced=0 / bluray_compat=0 / constrained_intra=0 / bframes=0 / weightp=2 / keyint=250 / keyint_min=25 / scenecut=40 / intra_refresh=0 / rc=abr / mbtree=0 / bitrate=2988 / ratetol=1.0 / qcomp=0.60 / qpmin=10 / qpmax=51 / qpstep=4 / ip_ratio=1.40 / aq=1:1.00
Audio
ID : 1
Format : MPEG Audio
Format version : Version 1
Format profile : Layer 3
Mode : Joint stereo
Codec ID : 55
Codec ID/Hint : MP3
Duration : 1h 6mn
Bit rate mode : Constant
Bit rate : 192 Kbps
Channel(s) : 2 channels
Sampling rate : 48.0 KHz
Compression mode : Lossy
Delay relative to video : 960ms
Stream size : 91.0 MiB (7%)
Alignment : Split accross interleaves
Interleave, duration : 33 ms (1.00 video frame)
Interleave, preload duration : 504 ms
[Профиль] [ЛС]

Фабула

Стаж: 3 года 10 месяцев

Сообщений: 32

Пост 20-Июн-2014 15:33 (спустя 28 минут)

[Цитировать]

Видела этот фильм.
Понравился :)
БоА - чудесна )
[Профиль] [ЛС]

AlexStarRu

Стаж: 3 года 9 месяцев

Сообщений: 149

Пост 27-Июн-2014 16:33 (спустя 7 дней)

[Цитировать]

Понравилось. Вроде к середине фильма уже всё понятно. Однако последние минуты неожиданно поворачивают сюжет :)
[Профиль] [ЛС]

Дьявол рядом с тобой

Стаж: 2 года 9 месяцев

Сообщений: 5

Пост 03-Авг-2014 11:35 (спустя 1 месяц 5 дней)

[Цитировать]

А мне не очень понравился конец =( мне жалко другого парня.
[Профиль] [ЛС]

AlexStarRu

Стаж: 3 года 9 месяцев

Сообщений: 149

Пост 05-Авг-2014 08:32 (спустя 1 день 20 часов)

[Цитировать]

Ну, во всех треугольниках кто-то всё равно лишний.
[Профиль] [ЛС]

sole

Стаж: 2 года

Сообщений: 7

Пост 10-Фев-2016 11:47 (спустя 1 год 6 месяцев)

[Цитировать]

А меня наоборот порадовали последние минуты. Если бы не это я бы очень разочаровалась)
[Профиль] [ЛС]

fly2d

Стаж: 3 года

Сообщений: 2

Пост 19-Фев-2016 19:12 (спустя 9 дней)

[Цитировать]

Почему всем пофигу на то что фильм лежит в разделе для сериалов?
[Профиль] [ЛС]

jondok

Стаж: 2 года 1 месяц

Сообщений: 714

Откуда: Россия

Пост 20-Фев-2016 04:23 (спустя 9 часов)

[Цитировать]

Почему всем пофигу на то что фильм лежит в разделе для сериалов?
Как бы две серии говорят что это не фильм.
[Профиль] [ЛС]
Показать сообщения:    
Ответить на тему

Текущее время: Сегодня 02:01

Часовой пояс: GMT



Вы не можете начинать темы
Вы не можете отвечать на сообщения
Вы не можете редактировать свои сообщения
Вы не можете удалять свои сообщения
Вы не можете голосовать в опросах
Вы не можете прикреплять файлы к сообщениям
Вы не можете скачивать файлы