Жалобы на работу трекера ! прошу сюда :)

Жду любовь / Looking Forward to Romance / Waiting for love (Lee Eun-Jin) [2013 г., комедия, романтика, DVDRip] [RAW] [360]

Ответить на тему
 
Автор Сообщение

dusy78 ®

Стаж: 3 года 10 месяцев

Сообщений: 1005

Откуда: Россия

Пост 20-Июн-2014 15:15

[Цитировать]

Жду любовь
Looking Forward to Romance / Waiting for love
Год выпуска: 2013
Страна: Южная Корея
Жанр: комедия, романтика
Продолжительность: 2 / 2
Озвучивание: Екатерина Юрьева и Михаил Чёрный
СЕМПЛ: https://yadi.sk/d/jQSUNUM7UFh3H
Режиссер: Lee Eun-Jin
В ролях:
Daniel Choi (Дэниель Чхве) - Cha Ki-Dae
BoA (BoA) - Joo Yeon-Ae
Kim Ji-Won (Ким Чжи Вон) - Choi Sae-Rom
Siwan (Им Си Ван) - Jung Jin-Kook
Описание: В современном обществе любовь сводит людей с ума. Любовь давно перестала быть частью эмоций. Теперь это игра мозга и разума. Навыки флирта и опыт являются необходимостью, а не дополнением.
Но все-таки, один романтик на планете точно остался! Ён Э пережила жуткое предательство от возлюбленного, из-за чего стала посмешищем всего интернета. Она хочет нормальных отношений. Поэтому и обращается за помощью к пикаперу-ловеласу, который должен консультировать ее посредством чата. Однако, его телефон оказывается совсем у другого человека, который помогает Ён Э разобраться в отношениях на примере своих.
Перевод описания: Grace Elle
Качество: DVDRip
Формат: AVI
Видео кодек: XviD
Аудио кодек: MP3
Видео: 624x352, ~1300 Кбит/с, 29.97 fps
Аудио: MP3, 2ch, 48.0 KHz, 192 Kbps
Альтернативная раздача 1280х720

Скриншоты

MediaInfo

Format : AVI
Format/Info : Audio Video Interleave
File size : 714 MiB
Duration : 1h 6mn
Overall bit rate : 1 506 Kbps
Writing application : Lavf54.63.104
Video
ID : 0
Format : xvid
Codec ID : xvid
Duration : 1h 6mn
Bit rate : 1 300 Kbps
Width : 624 pixels
Height : 352 pixels
Display aspect ratio : 16:9
Frame rate : 29.970 fps
Bits/(Pixel*Frame) : 0.197
Stream size : 617 MiB (86%)
Audio
ID : 1
Format : MPEG Audio
Format version : Version 1
Format profile : Layer 3
Mode : Joint stereo
Codec ID : 55
Codec ID/Hint : MP3
Duration : 1h 6mn
Bit rate mode : Constant
Bit rate : 192 Kbps
Channel(s) : 2 channels
Sampling rate : 48.0 KHz
Compression mode : Lossy
Stream size : 91.1 MiB (13%)
Alignment : Aligned on interleaves
Interleave, duration : 24 ms (0.72 video frame)
[Профиль] [ЛС]
Показать сообщения:    
Ответить на тему

Текущее время: Сегодня 02:04

Часовой пояс: GMT



Вы не можете начинать темы
Вы не можете отвечать на сообщения
Вы не можете редактировать свои сообщения
Вы не можете удалять свои сообщения
Вы не можете голосовать в опросах
Вы не можете прикреплять файлы к сообщениям
Вы не можете скачивать файлы