Жалобы на работу трекера ! прошу сюда :)

Цветочки после ягодок / Boys Over Flowers [25/25] (Jeon Ki-sang) [2009 г., романтика, комедия] [RAW] [720p] DVO GREEN TEA

Страницы :  1, 2, 3, 4, 5, 6, 7  След.

Ответить на тему
 
Автор Сообщение

Nas ®

Стаж: 3 года 10 месяцев

Сообщений: 372

Пост 22-Июн-2014 22:54

[Цитировать]

Цветочки после ягодок
Boys Over Flowers / Boys Before Flowers

-
Страна: Южная Корея
Жанр: романтика, комедия
Год выпуска: 2009
Продолжительность: 25/25
-
Перевод: двухголосый закадровый Анастасия Романова и Ярослав Мельник
-
Режиссер: Jeon Ki-sang
В ролях:
Koo Hye Sun - Гым Чан Ди,
F4:
Lee Min Ho - Ку Чжун Пё
Kim Hyun Joong - Юн Чжи Ху
Kim Bum - Со И Чжон
Kim Joon - Сон У Бин
Описание:
Чан Ди - обычная корейская девушка, её отец хозяин маленькой химчистки.
Однажды, Чан Ди отвозила одежду заказчику в элитную школу и почти
случайно спасла своего клиента - ученика этой школы. Этот случай
возбудил общественность против богатеньких детей, и владельцам школы
пришлось дать ей стипендию на учёбу.
Там она знакомится со знаменитой четвёркой парней - F4.
Так начинается эта история...
-
Доп. информация:
Перевод: фсг Палата 666
Релиз: группа "GREEN TEA"
Оформление постера: Елена Горборукова

-
Видео: AVI; H.26; 1280 x 720; 29.970 fps; 2696 Кбит/сек
Аудио: MP3; 48,0 Гц; 192 Кбит/сек; 2 канала
!!! Альтернативная раздача: 360p (AVI, XviD)
ОСТ к дораме Цветочки после ягодок

MediaInfo

Format : AVI
Format/Info : Audio Video Interleave
File size : 1.42 GiB
Duration : 1h 10mn
Overall bit rate : 2 899 Kbps
Writing application : VirtualDubMod 1.5.10.2 (build 2540/release)
Writing library : VirtualDubMod build 2540/release
Video
ID : 0
Format : MPEG-4 Visual
Format profile : Advanced Simple@L5
Format settings, BVOP : 2
Format settings, QPel : No
Format settings, GMC : No warppoints
Format settings, Matrix : Default (H.263)
Muxing mode : Packed bitstream
Codec ID : XVID
Codec ID/Hint : XviD
Duration : 1h 10mn
Bit rate : 2 696 Kbps
Width : 1 280 pixels
Height : 720 pixels
Display aspect ratio : 16:9
Frame rate : 29.970 fps
Color space : YUV
Chroma subsampling : 4:2:0
Bit depth : 8 bits
Scan type : Progressive
Compression mode : Lossy
Bits/(Pixel*Frame) : 0.098
Stream size : 1.32 GiB (93%)
Writing library : XviD 64
Audio
ID : 1
Format : MPEG Audio
Format version : Version 1
Format profile : Layer 3
Mode : Joint stereo
Codec ID : 55
Codec ID/Hint : MP3
Duration : 1h 10mn
Bit rate mode : Constant
Bit rate : 192 Kbps
Channel(s) : 2 channels
Sampling rate : 48.0 KHz
Compression mode : Lossy
Stream size : 96.6 MiB (7%)
Alignment : Aligned on interleaves
Interleave, duration : 33 ms (1.00 video frame)
Interleave, preload duration : 504 ms


Последний раз редактировалось: Nas (2015-05-12 13:23), всего редактировалось 19 раз(а)
[Профиль] [ЛС]

Mia2323

Стаж: 3 года

Сообщений: 71

Пост 23-Июн-2014 15:01 (спустя 16 часов)

[Цитировать]

Какой красивый сюрприз. Спасибо огромное за озвучку этой дорамы. Есть возможность зделать в качестве 400p или 450p пожалуйста?
[Профиль] [ЛС]

Tainted-love

Стаж: 2 года 11 месяцев

Сообщений: 1180

Пост 23-Июн-2014 16:33 (спустя 1 час 32 минуты)

[Цитировать]

Присоединяюсь к просьбе Mia2323, все таки размерчик 360 маловат.
[Профиль] [ЛС]

Ная

Стаж: 2 года 7 месяцев

Сообщений: 206

Откуда: Россия

Пост 24-Июн-2014 09:27 (спустя 16 часов)

[Цитировать]

Да, действительно, приятный сюрприз!
В ВАШЕЙ озвучке этот сериал будет ещё более шикарный!
Очень завидую тем, кто ещё не смотрел его, и первый раз будет смотреть с "Green Tea представляет"...
Да, и я тоже, обязательно, ещё раз посмотрю!!!
БОЛЬШОЕ ВАМ СПАСИБО!!!
[Профиль] [ЛС]

Диана

Стаж: 3 года 2 месяца

Сообщений: 20

Пост 25-Июн-2014 11:21 (спустя 1 день 1 час)

[Цитировать]

У "Палаты..." временами немного корявый перевод, но это не существенно. Главное - хорошая озвучка!
Это одна из немногих любимых дорам, ставших для меня классикой азиатских сериалов. Спасибо огромное!
[Профиль] [ЛС]

Диана

Стаж: 3 года 2 месяца

Сообщений: 20

Пост 25-Июн-2014 12:11 (спустя 49 минут)

[Цитировать]

Посмотрела первую серию. Озвучка просто замечательная! Еще раз СПАСИБО!
[Профиль] [ЛС]

nice

Стаж: 3 года 1 месяц

Сообщений: 4

Пост 25-Июн-2014 12:56 (спустя 45 минут)

[Цитировать]

Ураа!!! Теперь пересмотрим с новой озвучкой))) Спасибо!!!
[Профиль] [ЛС]

abonty

Стаж: 2 года 6 месяцев

Сообщений: 1

Пост 25-Июн-2014 16:45 (спустя 3 часа)

[Цитировать]

озвучка шикарная, когда 2 серия будет?))))
[Профиль] [ЛС]

Nas ®

Стаж: 3 года 10 месяцев

Сообщений: 372

Пост 26-Июн-2014 10:31 (спустя 17 часов)

[Цитировать]

Добавлена 2 серия!
[Профиль] [ЛС]

Анастасия(Sumerr)

Стаж: 2 года 7 месяцев

Сообщений: 2

Пост 26-Июн-2014 17:25 (спустя 6 часов)

[Цитировать]

Спасибо!!
[Профиль] [ЛС]

Nas ®

Стаж: 3 года 10 месяцев

Сообщений: 372

Пост 30-Июн-2014 10:50 (спустя 3 дня)

[Цитировать]

Добавлена 3 серия!
[Профиль] [ЛС]

Tainted-love

Стаж: 2 года 11 месяцев

Сообщений: 1180

Пост 09-Июл-2014 20:38 (спустя 9 дней)

[Цитировать]

Да озвучка как всегда у вас просто великолепна! С нетерпением буду ждать продолжения.
[Профиль] [ЛС]

Nas ®

Стаж: 3 года 10 месяцев

Сообщений: 372

Пост 18-Июл-2014 21:32 (спустя 9 дней)

[Цитировать]

Добавлена 4 серия!
[Профиль] [ЛС]

Tainted-love

Стаж: 2 года 11 месяцев

Сообщений: 1180

Пост 19-Июл-2014 19:41 (спустя 22 часа)

[Цитировать]

Спасибо и удачи в дальнейшей работе... обязательно оставлю эту дорамку у себя в архиве.
[Профиль] [ЛС]

AExenia

Стаж: 2 года 4 месяца

Сообщений: 4

Пост 21-Июл-2014 18:57 (спустя 1 день 23 часа)

[Цитировать]

А могу ли я отдельно скачать четвертую серию?
[Профиль] [ЛС]
Показать сообщения:    
Ответить на тему

Текущее время: Сегодня 22:10

Часовой пояс: GMT



Вы не можете начинать темы
Вы не можете отвечать на сообщения
Вы не можете редактировать свои сообщения
Вы не можете удалять свои сообщения
Вы не можете голосовать в опросах
Вы не можете прикреплять файлы к сообщениям
Вы не можете скачивать файлы