Жалобы на работу трекера ! прошу сюда :)

Цветок вампира / Vampire's Flower [6/6] [2014 г., романтика, вампиры, фэнтези, WEBDLRip] [RAW] [1080p] DVO GREEN TEA

Ответить на тему
 
Автор Сообщение

balic ®

Стаж: 3 года 10 месяцев

Сообщений: 324

Пост 04-Авг-2014 15:04

[Цитировать]

Цветок вампира (Вампирский цветок)
Baem-pai-eo-ui kkot / Vampire's Flower (Flower of the Vampires)

Год выпуска: 2014
Страна: Южная Корея
Жанр: вампиры, фэнтези, романтика
Продолжительность: 6 серий по ~10 мин.
Серий: 1-6 (6)-Озвучивание: Двухголосое (закадровое) Екатерина Юрьева и Ми24-Режиссер: Ким Сан Хун (Kim Sang Hoon)
В ролях:
Со Дже Хён (Seo Jae Hyung / 서재형) - Lui
Ким Хён Гон (Kim Hyung Kon / 김형곤) - Reoka
Мун Хё Джун (Moon Hyo Joon / 문효준) - Akan
Ли Сын Ёб (Lee Seung Yub / 이승엽) - Baek Han
Ким Га Ын (Kim Ga Eun / 김가은) - Seo Young
и др.-Описание: История крутится вокруг Луи, нашедшего цветок вампира, и Со Ён, пришедшей в мир вампиров в качестве его напарника.-Доп. информация:
Релиз группы GREEN TEA
Перевод: фансаб группа "BEARS"
Работа со звуком: Ольга Гринтиева
Оформление постера: Елена Горборукова
Координация проекта: Екатерина Амальфи-Качество: WEBDLRip
Формат: AVI
Видео кодек: H264 (AVC)
Аудио кодек: MP3
Видео: 1920х1080, ~5000 Кбит/с, 24 fps
Аудио: 48 kHz, 192 Кбит/c, 2 канала
!!! Альтернативная раздача: 400p (AVI, XviD)
ОСТ к дораме Цветок вампира

MediaInfo

Код:
General
Complete name                            : [GREEN TEA] Цветок вампира 01.avi
Format                                   : Matroska
Format version                           : Version 4 / Version 2
File size                                : 454 MiB
Duration                                 : 12mn 3s
Overall bit rate                         : 5 266 Kbps
Encoded date                             : UTC 2014-07-31 18:48:46
Writing application                      : mkvmerge v6.8.0 ('Theme for Great Cities') 64bit built on Mar  2 2014 21:34:26
Writing library                          : libebml v1.3.0 + libmatroska v1.4.1
Video
ID                                       : 1
Format                                   : AVC
Format/Info                              : Advanced Video Codec
Format profile                           : High@L4.0
Format settings, CABAC                   : Yes
Format settings, ReFrames                : 4 frames
Codec ID                                 : V_MPEG4/ISO/AVC
Duration                                 : 12mn 3s
Bit rate                                 : 4 969 Kbps
Width                                    : 1 920 pixels
Height                                   : 1 080 pixels
Display aspect ratio                     : 16:9
Frame rate mode                          : Constant
Frame rate                               : 24.000 fps
Color space                              : YUV
Chroma subsampling                       : 4:2:0
Bit depth                                : 8 bits
Scan type                                : Progressive
Bits/(Pixel*Frame)                       : 0.100
Stream size                              : 429 MiB (94%)
Writing library                          : x264 core 130 r2273 b3065e6
Encoding settings                        : cabac=1 / ref=4 / deblock=1:-1:-1 / analyse=0x3:0x133 / me=tesa / subme=10 / psy=1 / psy_rd=1.00:0.00 / mixed_ref=1 / me_range=32 / chroma_me=1 / trellis=2 / 8x8dct=1 / cqm=0 / deadzone=21,11 / fast_pskip=0 / chroma_qp_offset=-2 / threads=6 / lookahead_threads=1 / sliced_threads=0 / nr=0 / decimate=1 / interlaced=0 / bluray_compat=0 / constrained_intra=0 / bframes=4 / b_pyramid=2 / b_adapt=2 / b_bias=0 / direct=3 / weightb=1 / open_gop=0 / weightp=2 / keyint=250 / keyint_min=23 / scenecut=40 / intra_refresh=0 / rc_lookahead=60 / rc=crf / mbtree=1 / crf=18.0 / qcomp=0.60 / qpmin=0 / qpmax=69 / qpstep=4 / ip_ratio=1.40 / aq=1:1.00
Default                                  : Yes
Forced                                   : No
Audio
ID                                       : 2
Format                                   : MPEG Audio
Format version                           : Version 1
Format profile                           : Layer 3
Codec ID                                 : A_MPEG/L3
Codec ID/Hint                            : MP3
Duration                                 : 12mn 3s
Bit rate mode                            : Constant
Bit rate                                 : 192 Kbps
Channel(s)                               : 2 channels
Sampling rate                            : 48.0 KHz
Compression mode                         : Lossy
Stream size                              : 16.6 MiB (4%)
Default                                  : Yes
Forced                                   : No

Скриншоты



Последний раз редактировалось: balic (2014-08-20 09:03), всего редактировалось 1 раз
[Профиль] [ЛС]

koanol

Стаж: 2 года 4 месяца

Сообщений: 1

Пост 04-Авг-2014 17:36 (спустя 2 часа 31 минута)

[Цитировать]

Чому не можна скачати???
[Профиль] [ЛС]

nuranura

Стаж: 3 года 1 месяц

Сообщений: 142

Пост 05-Авг-2014 08:32 (спустя 14 часов)

[Цитировать]

спасибо за озвучку! а размер 360р или 400р планируется?
[Профиль] [ЛС]

Tainted-love

Стаж: 2 года 11 месяцев

Сообщений: 1180

Пост 05-Авг-2014 11:05 (спустя 2 часа 33 минуты)

[Цитировать]

Не надо меньший размер, тут и так немного веса.
[Профиль] [ЛС]

Ростислав

Стаж: 3 года

Сообщений: 10

Пост 05-Авг-2014 14:20 (спустя 3 часа)

[Цитировать]

Спасибо большущее!!!
[Профиль] [ЛС]

nuranura

Стаж: 3 года 1 месяц

Сообщений: 142

Пост 05-Авг-2014 15:54 (спустя 1 час 34 минуты)

[Цитировать]

Tainted-love, у меня DVD не воспроизводит, поэтому и попросила меньший размер.
[Профиль] [ЛС]

konspirator1985

Стаж: 3 года 10 месяцев

Сообщений: 45

Пост 09-Авг-2014 09:29 (спустя 3 дня)

[Цитировать]

спасибо за озвучку! а размер 360р или 400р планируется?
Поддерживаю вопрос.... Если будет, подожду.
[Профиль] [ЛС]

Klёпa

Стаж: 3 года 2 месяца

Сообщений: 906

Пост 09-Авг-2014 13:23 (спустя 3 часа)

[Цитировать]

nuranura, konspirator1985, сделаем для вас 400р))
П.С. будет завтра-послезавтра.
[Профиль] [ЛС]

Klёпa

Стаж: 3 года 2 месяца

Сообщений: 906

Пост 11-Авг-2014 16:31 (спустя 2 дня 3 часа)

[Цитировать]

Для всех желающих добавлена альтернативная раздача в 400р bs
[Профиль] [ЛС]

konspirator1985

Стаж: 3 года 10 месяцев

Сообщений: 45

Пост 11-Авг-2014 18:16 (спустя 1 час 44 минуты)

[Цитировать]

Klёпa, Огромное спасибо!!!
[Профиль] [ЛС]

Хиджиката Тоширо

Стаж: 3 года 9 месяцев

Сообщений: 54

Пост 11-Авг-2014 19:41 (спустя 1 час 25 минут)

[Цитировать]

спасибо ^^
[Профиль] [ЛС]

Tainted-love

Стаж: 2 года 11 месяцев

Сообщений: 1180

Пост 20-Авг-2014 06:18 (спустя 8 дней)

[Цитировать]

Вампира Луи играет Со Дже Хен? А то в шапке не понятно... да и имя Луи я не нашла... только Roy... Это читается как Луи?
[Профиль] [ЛС]

Tainted-love

Стаж: 2 года 11 месяцев

Сообщений: 1180

Пост 21-Авг-2014 14:19 (спустя 1 день 8 часов)

[Цитировать]

Спасибо, исправление увидела...
[Профиль] [ЛС]

Noel313

Стаж: 2 года 4 месяца

Сообщений: 3

Пост 31-Окт-2014 12:49 (спустя 2 месяца 9 дней)

[Цитировать]

Мужской голос ужасен, что за жуткие интонации?
Лучше бы посмотрела с субтитрами...

_________________
[Профиль] [ЛС]

Tainted-love

Стаж: 2 года 11 месяцев

Сообщений: 1180

Пост 01-Ноя-2014 19:59 (спустя 1 день 7 часов)

[Цитировать]

Вот как..., а мне понравилось...
[Профиль] [ЛС]
Показать сообщения:    
Ответить на тему

Текущее время: Сегодня 22:11

Часовой пояс: GMT



Вы не можете начинать темы
Вы не можете отвечать на сообщения
Вы не можете редактировать свои сообщения
Вы не можете удалять свои сообщения
Вы не можете голосовать в опросах
Вы не можете прикреплять файлы к сообщениям
Вы не можете скачивать файлы