Жалобы на работу трекера ! прошу сюда :)

Искушение / Приманка / Temptation Yoohok / 유혹 (Пак Ён Су / Хан Джи Хун) (20/20) (мелодрама, 2014г, Южная Корея) 720р VO GREEN TEA

Страницы :  1, 2, 3  След.

Ответить на тему
 
Автор Сообщение

Nas ®

Стаж: 3 года 10 месяцев

Сообщений: 372

Пост 04-Авг-2014 18:06

[Цитировать]

Искушение / Приманка
Temptation Yoohok / 유혹

-
Год выпуска: 2014
Страна: Южная Корея
Жанр: мелодрама
Продолжительность: 20/20
-
Перевод: Одноголосый (закадровый) Ольга Гринтиева
-
Режиссер: Пак Ён Су
Сценарист: Хан Джи Хун
В ролях:
Пак Ха Сон, Чхве Чжи У, Юн А Чжон, Квон Сан У, Ли Чжон Чжин, Ли Джон Шин
Описание:
Главный герой - женатый мужчина, которому срочно нужно расплатиться с долгами. Одна женщина одалживает ему несколько миллиардов вон и в обмен на деньги получает его в своё полное распоряжение...
Актеры Квон Сан У и Чхве Чжи У воссоединиться спустя 11 лет после их первой драмы вместе, Лестница в небо .
-
Доп. информация:
Перевод: фансаб-группа Мания
Релиз группы GREEN TEA
Оформление постера: Елена Горборукова
Таймиг:
1 серия Александр Изюмский
2,3 серии: Геннадий Дахно
4 серия: Эльза Шапарелли
далее Геннадий Дахно
Работа со звуком: Ольга Гринтиева

-
Качество: HDTV
Формат: AVI
Видео кодек: H264
Аудио кодек: MP3
Видео: 1 280 на 720 pixel; 29.970 fps,
Аудио: 48.0 KHz; 192 Kbps; 2 channels
ОСТ к дораме Искушение
!!! Альтернативная раздача: 360p (AVI, XviD)

Медиаинфо

Video
ID : 0
Format : AVC
Format/Info : Advanced Video Codec
Format profile : High@L3.1
Format settings, CABAC : No
Format settings, ReFrames : 1 frame
Codec ID : H264
Duration : 59mn 12s
Bit rate : 2 506 Kbps
Nominal bit rate : 2 916 Kbps
Width : 1 280 pixels
Height : 720 pixels
Display aspect ratio : 16:9
Frame rate : 29.970 fps
Color space : YUV
Chroma subsampling : 4:2:0
Bit depth : 8 bits
Scan type : Progressive
Bits/(Pixel*Frame) : 0.091
Stream size : 1.04 GiB (92%)
Writing library : x264 core 116 r2057kMod 0ba8a9c
Encoding settings : cabac=0 / ref=1 / deblock=1:0:0 / analyse=0x3:0x13 / me=umh / subme=7 / psy=1 / fade_compensate=0.00 / psy_rd=1.00:0.00 / mixed_ref=0 / me_range=16 / chroma_me=1 / trellis=1 / 8x8dct=1 / cqm=0 / deadzone=21,11 / fast_pskip=1 / chroma_qp_offset=-2 / threads=4 / sliced_threads=1 / slices=4 / nr=0 / decimate=1 / interlaced=0 / bluray_compat=0 / constrained_intra=0 / bframes=0 / weightp=2 / keyint=250 / keyint_min=25 / scenecut=40 / intra_refresh=0 / rc=abr / mbtree=0 / bitrate=2916 / ratetol=1.0 / qcomp=0.60 / qpmin=10 / qpmax=51 / qpstep=4 / ip_ratio=1.40 / aq=1:1.00
Audio
ID : 1
Format : MPEG Audio
Format version : Version 1
Format profile : Layer 3
Codec ID : 55
Codec ID/Hint : MP3
Duration : 59mn 12s
Bit rate mode : Constant
Bit rate : 192 Kbps
Channel count : 2 channels
Sampling rate : 48.0 KHz
Compression mode : Lossy
Stream size : 81.3 MiB (7%)
Alignment : Aligned on interleaves
Interleave, duration : 33 ms (1.00 video frame)
Interleave, preload duration : 504 ms

Скриншоты

[Профиль] [ЛС]

Ланочка10_83

Стаж: 3 года 1 месяц

Сообщений: 131

Пост 05-Авг-2014 02:02 (спустя 7 часов)

[Цитировать]

Спасибо!!! :)
[Профиль] [ЛС]

j_777

Стаж: 3 года 9 месяцев

Сообщений: 302

Пост 05-Авг-2014 02:54 (спустя 51 минута)

[Цитировать]

Мммм... что-то новенькое, будем ждать... Легкой и быстрой вам озвучки!!!!!
[Профиль] [ЛС]

tatyana73

Стаж: 3 года 1 месяц

Сообщений: 127

Пост 05-Авг-2014 12:36 (спустя 9 часов)

[Цитировать]

ПОЗДРАВЛЯЮ С НАЧАЛОМ !!!
[Профиль] [ЛС]

AlexStarRu

Стаж: 3 года 9 месяцев

Сообщений: 149

Пост 06-Авг-2014 03:25 (спустя 14 часов)

[Цитировать]

В заголовке опечатка :)
[Профиль] [ЛС]

Амальфи

Стаж: 3 года 10 месяцев

Сообщений: 264

Пост 14-Авг-2014 18:09 (спустя 8 дней)

[Цитировать]

Добавлена 2 серия!
[Профиль] [ЛС]

pandora2177

Стаж: 3 года 10 месяцев

Сообщений: 368

Пост 19-Авг-2014 10:26 (спустя 4 дня)

[Цитировать]

Добавлена 3 серия!
[Профиль] [ЛС]

pandora2177

Стаж: 3 года 10 месяцев

Сообщений: 368

Пост 02-Сен-2014 05:26 (спустя 13 дней)

[Цитировать]

Добавлена 4 серия!
[Профиль] [ЛС]

Tainted-love

Стаж: 2 года 11 месяцев

Сообщений: 1180

Пост 21-Сен-2014 19:34 (спустя 19 дней)

[Цитировать]

Необычный сюжет...
[Профиль] [ЛС]

Хумора

Стаж: 2 года 2 месяца

Сообщений: 2

Пост 22-Сен-2014 06:53 (спустя 11 часов)

[Цитировать]

остальные серии когда закончите дублировать
[Профиль] [ЛС]

MariLand

Стаж: 3 года 9 месяцев

Сообщений: 235

Пост 22-Сен-2014 10:07 (спустя 3 часа)

[Цитировать]

Хумора, это платный проект, озвучивается по мере сбора средств
[Профиль] [ЛС]

pandora2177

Стаж: 3 года 10 месяцев

Сообщений: 368

Пост 25-Сен-2014 08:13 (спустя 2 дня 22 часа)

[Цитировать]

Добавлена 5 серия!
[Профиль] [ЛС]

pandora2177

Стаж: 3 года 10 месяцев

Сообщений: 368

Пост 26-Сен-2014 18:35 (спустя 1 день 10 часов)

[Цитировать]

Добавлена 6 серия!
[Профиль] [ЛС]

Ная

Стаж: 2 года 7 месяцев

Сообщений: 206

Откуда: Россия

Пост 26-Сен-2014 23:59 (спустя 5 часов)

[Цитировать]

Огромное спасибо!!!
Великолепный сериал!!!
Глубокий, нелёгкий, о непростых человеческих чувствах и взаимоотношениях.
Трогательное музыкальное сопровождение.
Сериал затягивает с первой серии.
Ольга Гринтиева, большое спасибо за отличную озвучку, и всем кто работает над сериалом!
[Профиль] [ЛС]

Tainted-love

Стаж: 2 года 11 месяцев

Сообщений: 1180

Пост 27-Сен-2014 21:08 (спустя 21 час)

[Цитировать]

Присоединяюсь к мнению Наи...это действительно так.
[Профиль] [ЛС]
Показать сообщения:    
Ответить на тему

Текущее время: Сегодня 15:57

Часовой пояс: GMT



Вы не можете начинать темы
Вы не можете отвечать на сообщения
Вы не можете редактировать свои сообщения
Вы не можете удалять свои сообщения
Вы не можете голосовать в опросах
Вы не можете прикреплять файлы к сообщениям
Вы не можете скачивать файлы