Жалобы на работу трекера ! прошу сюда :)

Цветок вампира / Vampire's Flower [6/6] (Kim Sang Hoon) [2014 г., романтика, вампиры, фэнтези, WEDLRip] [RAW] [400p] DVO GREEN TEA

Ответить на тему
 
Автор Сообщение

Klёпa ®

Стаж: 3 года 2 месяца

Сообщений: 906

Пост 11-Авг-2014 16:27

[Цитировать]

Цветок вампира (Вампирский цветок)
Baem-pai-eo-ui kkot / Vampire's Flower (Flower of the Vampires)

Год выпуска: 2014
Страна: Южная Корея
Жанр: вампиры, фэнтези, романтика
Продолжительность: 6 серий по ~10 мин.
Серий: 1-6 (6)-Озвучивание: Двухголосое (закадровое) Екатерина Юрьева и Ми24
Сэмпл: https://yadi.sk/i/V-030m35ZSW9e-Режиссер: Ким Сан Хун (Kim Sang Hoon)
В ролях:
Со Дже Хён (Seo Jae Hyung / 서재형) - Roy
Ким Хён Гон (Kim Hyung Kon / 김형곤) - Reoka
Мун Хё Джун (Moon Hyo Joon / 문효준) - Akan
Ли Сын Ёб (Lee Seung Yub / 이승엽) - Baek Han
Ким Га Ын (Kim Ga Eun / 김가은) - Seo Young
и др.-Описание:
История крутится вокруг Луи, нашедшего цветок вампира, и Со Ён, пришедшей в мир вампиров в качестве его напарника.-Доп. информация:
Релиз группы GREEN TEA
Перевод: фансаб группа "BEARS"
Работа со звуком: Ольга Гринтиева
Оформление постера: Елена Горборукова
Координация проекта: Екатерина Амальфи-Качество: WEBDLRip
Формат: AVI
Видео кодек: XviD
Аудио кодек: MP3
Видео: 720х400, ~1500 Кбит/с, 24 fps
Аудио: 48 kHz, 192 Кбит/c, 2 канала
!!! Альтернативная раздача: 1080p (AVI, H264)
ОСТ к дораме Цветок вампира

MediaInfo

Код:
General
Complete name                            : [GREEN TEA] Vampires.Flower_01.avi
Format                                   : AVI
Format/Info                              : Audio Video Interleave
File size                                : 144 MiB
Duration                                 : 12mn 3s
Overall bit rate                         : 1 675 Kbps
Movie name                               : Цветок вампира / Vampire's Flower (2014)
Writing application                      : VirtualDubMod 1.5.10.2 (build 2542/release)
Writing library                          : VirtualDubMod build 2542/release
Video
ID                                       : 0
Format                                   : MPEG-4 Visual
Format profile                           : Advanced Simple@L5
Format settings, BVOP                    : 2
Format settings, QPel                    : No
Format settings, GMC                     : No warppoints
Format settings, Matrix                  : Default (MPEG)
Codec ID                                 : XVID
Codec ID/Hint                            : XviD
Duration                                 : 12mn 3s
Bit rate                                 : 1 474 Kbps
Width                                    : 720 pixels
Height                                   : 400 pixels
Display aspect ratio                     : 16:9
Frame rate                               : 24.000 fps
Color space                              : YUV
Chroma subsampling                       : 4:2:0
Bit depth                                : 8 bits
Scan type                                : Progressive
Compression mode                         : Lossy
Bits/(Pixel*Frame)                       : 0.213
Stream size                              : 127 MiB (88%)
Writing library                          : XviD 1.2.1 (UTC 2008-12-04)
Audio
ID                                       : 1
Format                                   : MPEG Audio
Format version                           : Version 1
Format profile                           : Layer 3
Codec ID                                 : 55
Codec ID/Hint                            : MP3
Duration                                 : 12mn 3s
Bit rate mode                            : Constant
Bit rate                                 : 192 Kbps
Channel(s)                               : 2 channels
Sampling rate                            : 48.0 KHz
Compression mode                         : Lossy
Stream size                              : 16.6 MiB (11%)
Alignment                                : Aligned on interleaves
Interleave, duration                     : 42 ms (1.00 video frame)
Interleave, preload duration             : 504 ms
Title                                    : GREEN TEA DVO (Екатерина Юрьева и Ми24)
Writing library                          : LAME3.99r
Encoding settings                        : -m s -V 4 -q 2 -lowpass 18.6 -b 192

Скриншоты


[Профиль] [ЛС]

nuranura

Стаж: 3 года 1 месяц

Сообщений: 142

Пост 12-Авг-2014 05:11 (спустя 12 часов)

[Цитировать]

спасибо огромное!!!!!!
[Профиль] [ЛС]

konspirator1985

Стаж: 3 года 10 месяцев

Сообщений: 45

Пост 12-Авг-2014 07:06 (спустя 1 час 55 минут)

[Цитировать]

Спасибо за меньший размер....
[Профиль] [ЛС]

Simisi

Стаж: 2 года 1 месяц

Сообщений: 1

Пост 09-Окт-2014 07:22 (спустя 1 месяц 28 дней)

[Цитировать]

Спасибо за эту раздачу!
[Профиль] [ЛС]

Klёпa ®

Стаж: 3 года 2 месяца

Сообщений: 906

Пост 09-Окт-2014 16:17 (спустя 8 часов)

[Цитировать]

Simisi, всегда пожалуйста))
[Профиль] [ЛС]

Франя

Стаж: 1 год 4 месяца

Сообщений: 4

Пост 05-Авг-2015 19:30 (спустя 9 месяцев 27 дней)

[Цитировать]

Доброго времени суток. ^_^
Не подскажете будет кто на раздаче? Жду не дождусь.
Спасибо вам за озвучку. \^_^/

_________________
"Детки - это ангелочки, невинные помыслами и чистые сердцами. Женщины - это котятки с железными желудками."
[Профиль] [ЛС]
Показать сообщения:    
Ответить на тему

Текущее время: Сегодня 14:07

Часовой пояс: GMT



Вы не можете начинать темы
Вы не можете отвечать на сообщения
Вы не можете редактировать свои сообщения
Вы не можете удалять свои сообщения
Вы не можете голосовать в опросах
Вы не можете прикреплять файлы к сообщениям
Вы не можете скачивать файлы