Жалобы на работу трекера ! прошу сюда :)

Обречён любить тебя / Woonmyungcheoreom Neol Saranghae / Fated to Love You [20/20] (И Дон Юн) [2014 г., романтика, мелодрама, комедия] [RAW] [360p] DVO GREEN TEA

Страницы :  1, 2, 3  След.

Ответить на тему
 
Автор Сообщение

dusy78 ®

Стаж: 3 года 10 месяцев

Сообщений: 1005

Откуда: Россия

Пост 19-Сен-2014 16:10

[Цитировать]

Обречён любить тебя
Woonmyungcheoreom Neol Saranghae / Fated to Love You

-Страна: Южная Корея
Год выпуска: 2014
Жанр: романтика, мелодрама, комедия
Продолжительность: 20 / 20
Озвучивание: Макс Коллапс и Людмила Линькова
СЕМПЛ: https://yadi.sk/i/CyxMMKXdbyHL5-Режиссер:И Дон Юн
В ролях:
Чан Хён - Ли Гон
Чан На Ра - Ким Ми Ён
Чхве Чжин Хёк - Дэниэль
Ван Чжи Вон - Кан Сэ Ра-Описание:
Чан Хёк сыграет Ли Хён Су - правопреемника химической компании, семья которого против его отношений с балериной. А Чан На Ра исполнит роль Kang Yoon Kyung, которая выросла на небольшом острове Dadohae. И после окончания университета устроилась на работу в юридическую фирму.
На первых снимках перед нами предстает главная героиня Ким Ми Ён, в исполнении Чан На Ра. Типичная офисная мышка, девушка на побегушках, стремящаяся угодить всем и каждому в офисе. Ее жизнь повернется на 180 градусов, когда она, будучи в отпуске, проведет ночь с богатым наследником.-Доп. информация:
Релиз группы: GREEN TEA
Перевод: релиз-группа Мания
Работа со звуком: Людмила Линькова
-Формат: AVI
Видео кодек: XviD
Аудио кодек: MP3
Видео: 624x352, ~1450 Кбит/с, 29.97 fps
Аудио: 192 Кбит/с, 48.0 КHz, 2 канала
!!! Альтернативная раздача 1280х720
ОСТ к дораме Обречён любить тебя

Скриншоты

MediaInfo

Format : AVI
Format/Info : Audio Video Interleave
File size : 672 MiB
Duration : 59mn 16s
Overall bit rate : 1 586 Kbps
Writing application : VirtualDubMod 1.5.10.2 (build 2542/release)
Writing library : VirtualDubMod build 2542/release
Video
ID : 0
Format : xvid
Codec ID : xvid
Duration : 59mn 16s
Bit rate : 1 446 Kbps
Width : 624 pixels
Height : 352 pixels
Display aspect ratio : 16:9
Frame rate : 29.970 fps
Bits/(Pixel*Frame) : 0.220
Stream size : 613 MiB (91%)
Audio
ID : 1
Format : MPEG Audio
Format version : Version 1
Format profile : Layer 3
Mode : Joint stereo
Mode extension : MS Stereo
Codec ID : 55
Codec ID/Hint : MP3
Duration : 59mn 16s
Bit rate mode : Constant
Bit rate : 128 Kbps
Channel(s) : 2 channels
Sampling rate : 48.0 KHz
Compression mode : Lossy
Stream size : 54.3 MiB (8%)
Alignment : Aligned on interleaves
Interleave, duration : 33 ms (1.00 video frame)
Interleave, preload duration : 504 ms
Добавлена 20 серия!


Последний раз редактировалось: dusy78 (2014-12-29 10:55), всего редактировалось 14 раз(а)
[Профиль] [ЛС]

Ная

Стаж: 2 года 7 месяцев

Сообщений: 206

Откуда: Россия

Пост 19-Сен-2014 23:26 (спустя 7 часов)

[Цитировать]

Замечательный сериал!!!
Озвучка отличная, большое спасибо всем кто работает над сериалом!
Отдельное спасибо за меньший размер!
[Профиль] [ЛС]

Tainted-love

Стаж: 2 года 11 месяцев

Сообщений: 1180

Пост 20-Сен-2014 16:14 (спустя 16 часов)

[Цитировать]

Присоединяюсь!
[Профиль] [ЛС]

Tainted-love

Стаж: 2 года 11 месяцев

Сообщений: 1180

Пост 21-Сен-2014 19:03 (спустя 1 день 2 часа)

[Цитировать]

Мне нравятся ваши голоса поэтому я жду с нетерпением окончания работы над проектом.
[Профиль] [ЛС]

dusy78 ®

Стаж: 3 года 10 месяцев

Сообщений: 1005

Откуда: Россия

Пост 30-Сен-2014 16:55 (спустя 8 дней)

[Цитировать]

Добавлена 8 серия!
[Профиль] [ЛС]

inga_li

Стаж: 2 года 9 месяцев

Сообщений: 43

Пост 01-Окт-2014 09:28 (спустя 16 часов)

[Цитировать]

большое спасибо!
[Профиль] [ЛС]

dusy78 ®

Стаж: 3 года 10 месяцев

Сообщений: 1005

Откуда: Россия

Пост 02-Окт-2014 11:49 (спустя 1 день 2 часа)

[Цитировать]

Добавлена 9 серия!
[Профиль] [ЛС]

Tainted-love

Стаж: 2 года 11 месяцев

Сообщений: 1180

Пост 02-Окт-2014 16:15 (спустя 4 часа)

[Цитировать]

Спасибо за вашу чудесную работу.
[Профиль] [ЛС]

dusy78 ®

Стаж: 3 года 10 месяцев

Сообщений: 1005

Откуда: Россия

Пост 03-Окт-2014 03:19 (спустя 11 часов)

[Цитировать]

Tainted-love, спасибо ребятам за то, что так замечательно озвучивают и еще спасибо тем, кто оплачивает этот проект!
А я просто раздаю bk
[Профиль] [ЛС]

Vina239

Стаж: 2 года 4 месяца

Сообщений: 4

Пост 03-Окт-2014 16:29 (спустя 13 часов)

[Цитировать]

dusy78, А я просто раздаю - Это огромная помощь, за счет раздающих нас многие смотрят bp
[Профиль] [ЛС]

dusy78 ®

Стаж: 3 года 10 месяцев

Сообщений: 1005

Откуда: Россия

Пост 03-Окт-2014 17:22 (спустя 52 минуты)

[Цитировать]

Vina239, спасибо, солнышко! рада помочь!
[Профиль] [ЛС]

dusy78 ®

Стаж: 3 года 10 месяцев

Сообщений: 1005

Откуда: Россия

Пост 07-Окт-2014 16:25 (спустя 3 дня)

[Цитировать]

Добавлена 10 серия!
[Профиль] [ЛС]

Tainted-love

Стаж: 2 года 11 месяцев

Сообщений: 1180

Пост 07-Окт-2014 16:34 (спустя 9 минут)

[Цитировать]

Очень спасибо!
[Профиль] [ЛС]

dusy78 ®

Стаж: 3 года 10 месяцев

Сообщений: 1005

Откуда: Россия

Пост 14-Окт-2014 13:17 (спустя 6 дней)

[Цитировать]

Добавлена 11 серия!
[Профиль] [ЛС]

Tainted-love

Стаж: 2 года 11 месяцев

Сообщений: 1180

Пост 14-Окт-2014 20:46 (спустя 7 часов)

[Цитировать]

Спасибо!!!
[Профиль] [ЛС]
Показать сообщения:    
Ответить на тему

Текущее время: Сегодня 09:40

Часовой пояс: GMT



Вы не можете начинать темы
Вы не можете отвечать на сообщения
Вы не можете редактировать свои сообщения
Вы не можете удалять свои сообщения
Вы не можете голосовать в опросах
Вы не можете прикреплять файлы к сообщениям
Вы не можете скачивать файлы