Жалобы на работу трекера ! прошу сюда :)

Железный человек / Aieonmaen / Iron Man / Blade Man [18/18] (Ким Ён Су) [2014, драма, фантастика, HDTVRip] [360p] VO GREEN TEA

Страницы :  1, 2  След.

Ответить на тему
 
Автор Сообщение

Klёпa ®

Стаж: 3 года 2 месяца

Сообщений: 906

Пост 20-Сен-2014 23:44

[Цитировать]

Железный человек
Aieonmaen / Iron Man (Blade Man)

Год выпуска: 2014
Страна: Южная Корея
Жанр: драма, фантастика
Продолжительность: 20 серий по ~60 мин.
Серий: 1-18 (18)-Перевод: Одноголосый (закадровый) Екатерина Юрьева
Сэмпл: https://yadi.sk/i/9GYndubDbaUk5
-Режиссер: Ким Ён Су (Kim Yong Soo / 김용수)
В ролях:
Ли Дон Ук (Lee Dong Wook / 이동욱) - Чжу Хон Бин
Син Сэ Гён (Shin Se Kyung / 신세경) - Сон Се Дон
Ким Гап Су (Kim Gab Soo / 김갑수) - Чжу Чан Вон (отец Хон Бина)
Чжон Ю Гын (Jung Yoo Geun / 정유근) - Чхан (сын Хон Бина)
Ли Ми Сук (Lee Mi Sook / 이미숙) - дворецкая Юн
Хан Чон Су (Han Jung Soo / 한정수) - секретарь Ко
Ли Чжу Сын (Lee Joo Seung / 이주승) - Чжу Хон Чжу
Cин Сын Хван (Shin Seung Hwan / 신승환) - Сын Хван
Чжон Чжин (Jung Jin / 정진) - О Джун Сик
Хан Ын Чжон (Han Eun Jung / 한은정) - Ким Тхэ Хи
Сон Ун (Sun Woong / 선웅) - Гён Хо
Ра Ми Ран (Ra Mi Ran / 라미란) - Эриса Пак
Кан Да Бин (Kang Da Bin / 강다빈) - Су Дже
и др.
-Описание:
История о человеке с особой способностью при вспышках гнева испускать лезвия. Он холоден и циничен, однако как часто бывает в таких случаях, он скрывает тяжелую травму в душе.
-Доп. информация:
Релиз группы GREEN TEA
Перевод: фансаб-группа "MAНИЯ"
Работа со звуком: Екатерина Юрьева
Оформление постера: Елена Горборукова-Качество: HDTVRip
Формат: AVI
Видео кодек: XviD
Аудио кодек: MP3
Видео: 624х352, ~1270 Кбит/с, 29.97 fps
Аудио: 48 kHz, 192 Кбит/c, 2 канала
ОСТ к дораме Железный человек
!!! Альтернативная раздача: 720p (AVI, H264)
22.11.2014 - добавлена 18 серия (заключительная).

MediaInfo

Код:
General
Complete name                            : [GREEN TEA] Iron.Man_E01.avi
Format                                   : AVI
Format/Info                              : Audio Video Interleave
File size                                : 617 MiB
Duration                                 : 58mn 32s
Overall bit rate                         : 1 473 Kbps
Movie name                               : Железный человек / Iron Man (2014)
Writing application                      : VirtualDubMod 1.5.10.2 (build 2542/release)
Writing library                          : VirtualDubMod build 2542/release
Video
ID                                       : 0
Format                                   : MPEG-4 Visual
Format profile                           : Advanced Simple@L5
Format settings, BVOP                    : 2
Format settings, QPel                    : No
Format settings, GMC                     : No warppoints
Format settings, Matrix                  : Default (MPEG)
Codec ID                                 : XVID
Codec ID/Hint                            : XviD
Duration                                 : 58mn 32s
Bit rate                                 : 1 269 Kbps
Width                                    : 624 pixels
Height                                   : 352 pixels
Display aspect ratio                     : 16:9
Frame rate                               : 29.970 fps
Color space                              : YUV
Chroma subsampling                       : 4:2:0
Bit depth                                : 8 bits
Scan type                                : Progressive
Compression mode                         : Lossy
Bits/(Pixel*Frame)                       : 0.193
Stream size                              : 531 MiB (86%)
Writing library                          : XviD 1.2.1 (UTC 2008-12-04)
Audio
ID                                       : 1
Format                                   : MPEG Audio
Format version                           : Version 1
Format profile                           : Layer 3
Mode                                     : Joint stereo
Codec ID                                 : 55
Codec ID/Hint                            : MP3
Duration                                 : 58mn 32s
Bit rate mode                            : Constant
Bit rate                                 : 192 Kbps
Channel(s)                               : 2 channels
Sampling rate                            : 44.1 KHz
Compression mode                         : Lossy
Stream size                              : 80.4 MiB (13%)
Alignment                                : Split accross interleaves
Interleave, duration                     : 33 ms (1.00 video frame)
Interleave, preload duration             : 500 ms
Title                                    : GREEN TEA VO

Скриншоты




Последний раз редактировалось: Klёпa (2014-11-21 23:37), всего редактировалось 15 раз(а)
[Профиль] [ЛС]

Klёпa ®

Стаж: 3 года 2 месяца

Сообщений: 906

Пост 26-Сен-2014 15:37 (спустя 5 дней)

[Цитировать]

Добавлена 5 серия!
[Профиль] [ЛС]

Klёпa ®

Стаж: 3 года 2 месяца

Сообщений: 906

Пост 27-Сен-2014 19:17 (спустя 1 день 3 часа)

[Цитировать]

Добавлена 6 серия!
[Профиль] [ЛС]

Mishatyan

Стаж: 3 года 1 месяц

Сообщений: 11

Пост 30-Сен-2014 12:18 (спустя 2 дня 17 часов)

[Цитировать]

Спасибо! Так много интересного! Скорей бы все вышло =) =)
[Профиль] [ЛС]

Klёпa ®

Стаж: 3 года 2 месяца

Сообщений: 906

Пост 04-Окт-2014 18:27 (спустя 4 дня)

[Цитировать]

Добавлена 7 серия!
[Профиль] [ЛС]

Klёпa ®

Стаж: 3 года 2 месяца

Сообщений: 906

Пост 10-Окт-2014 21:51 (спустя 6 дней)

[Цитировать]

Добавлена 8 серия!
[Профиль] [ЛС]

Klёпa ®

Стаж: 3 года 2 месяца

Сообщений: 906

Пост 12-Окт-2014 11:29 (спустя 1 день 13 часов)

[Цитировать]

Добавлена 9 серия!
[Профиль] [ЛС]

Klёпa ®

Стаж: 3 года 2 месяца

Сообщений: 906

Пост 19-Окт-2014 18:35 (спустя 7 дней)

[Цитировать]

Добавлена 10 серия!
[Профиль] [ЛС]

Klёпa ®

Стаж: 3 года 2 месяца

Сообщений: 906

Пост 20-Окт-2014 15:28 (спустя 20 часов)

[Цитировать]

Добавлена 11 серия!
[Профиль] [ЛС]

Klёпa ®

Стаж: 3 года 2 месяца

Сообщений: 906

Пост 25-Окт-2014 16:50 (спустя 5 дней)

[Цитировать]

Добавлена 12 серия!
[Профиль] [ЛС]

Klёпa ®

Стаж: 3 года 2 месяца

Сообщений: 906

Пост 25-Окт-2014 18:36 (спустя 1 час 46 минут)

[Цитировать]

По техническим причинам торрент был заменён, приносим извинения.
[Профиль] [ЛС]

j_777

Стаж: 3 года 9 месяцев

Сообщений: 302

Пост 26-Окт-2014 08:13 (спустя 13 часов)

[Цитировать]

Спасибки большущее!
[Профиль] [ЛС]

Klёпa ®

Стаж: 3 года 2 месяца

Сообщений: 906

Пост 27-Окт-2014 22:36 (спустя 1 день 14 часов)

[Цитировать]

Добавлена 13 серия!
[Профиль] [ЛС]

Klёпa ®

Стаж: 3 года 2 месяца

Сообщений: 906

Пост 01-Ноя-2014 00:03 (спустя 4 дня)

[Цитировать]

Добавлена 14 серия!
...но возможность скачать появится чуть позже, когда торрент будет снят с премодерации.
[Профиль] [ЛС]

Klёпa ®

Стаж: 3 года 2 месяца

Сообщений: 906

Пост 05-Ноя-2014 12:11 (спустя 4 дня)

[Цитировать]

Добавлена 15 серия!
[Профиль] [ЛС]
Показать сообщения:    
Ответить на тему

Текущее время: Сегодня 18:31

Часовой пояс: GMT



Вы не можете начинать темы
Вы не можете отвечать на сообщения
Вы не можете редактировать свои сообщения
Вы не можете удалять свои сообщения
Вы не можете голосовать в опросах
Вы не можете прикреплять файлы к сообщениям
Вы не можете скачивать файлы