Жалобы на работу трекера ! прошу сюда :)

История Канку / The Story of Kang Gu [02/02] (Хон Сон Чхан) [2014, драма, романтика, WEBDLRip] [720p] VO GREEN TEA

Ответить на тему
 
Автор Сообщение

Klёпa ®

Стаж: 3 года 2 месяца

Сообщений: 906

Пост 23-Сен-2014 12:44

[Цитировать]

История Канку
Kang-goo iyagi / The Story of Kang Gu (Kang Koo's Story)

Год выпуска: 2014
Страна: Южная Корея
Жанр: драма, романтика
Продолжительность: 2 серии по 65 мин.-Озвучивание: Одноголосое (закадровое) Екатерина Юрьева
Сэмпл: https://yadi.sk/i/zLXmJUyYbc8JB
-Режиссер: Хон Сон Чхан ( Hong Seong Chang / 홍성창)
В ролях:
Ли Дон Ук (Lee Dong Wook / 이동욱) - Кён Тэ
Пак Чжу Ми (Park Joo Mi / 박주미) - Мун Сук
Син Дон У (Sin Dong Woo / 신동우) - Кан Ку
Чжон Ха Ныль (Jeon Ha Neul / 전하늘)
и др.
-Описание:
Двухсерийная драма расскажет историю о парне по имени Гён Тхэ (Ли Дон Ук), которого все считают довольно хладнокровным и ни на что не годным. Внезапно у него умирает друг, который просит его позаботиться о сестре Мун Сук (Па Чу Ми) и племяннике Кан Ку. Для этого Гён Тхэ отправляется в портовый город Канку. Там он начинает заботиться о Кан Ку, который с опаской относится к незнакомцу Гён Тхэ, а также влюбляется в слабую здоровьем Мун.
-Доп. информация:
Релиз группы "GREEN TEA"
Перевод: фансаб-группа "MAНИЯ"
Работа со звуком: Екатерина Юрьева
Оформление постера: Дина Фаткулина-Качество: WEBDLRip
Формат: AVI
Видео кодек: H264
Аудио кодек: MP3
Видео: 1280х720, ~2610 Кбит/с, 29.97 fps
Аудио: 48 kHz, 192 Кбит/c, 2 канала
!!! Альтернативная раздача: 360p (AVI, XviD)

MediaInfo

Код:
General
Complete name                            : [GREEN TEA] Story.of.KangGu (720p)_E01.avi
Format                                   : AVI
Format/Info                              : Audio Video Interleave
File size                                : 1.26 GiB
Duration                                 : 1h 4mn
Overall bit rate                         : 2 815 Kbps
Writing application                      : VirtualDubMod 1.5.10.2 (build 2542/release)
Writing library                          : VirtualDubMod build 2542/release
Video
ID                                       : 0
Format                                   : AVC
Format/Info                              : Advanced Video Codec
Format profile                           : High@L5.1
Format settings, CABAC                   : Yes
Format settings, ReFrames                : 4 frames
Codec ID                                 : H264
Duration                                 : 1h 4mn
Bit rate                                 : 2 611 Kbps
Nominal bit rate                         : 2 988 Kbps
Width                                    : 1 280 pixels
Height                                   : 720 pixels
Display aspect ratio                     : 16:9
Frame rate                               : 29.970 fps
Color space                              : YUV
Chroma subsampling                       : 4:2:0
Bit depth                                : 8 bits
Scan type                                : Progressive
Bits/(Pixel*Frame)                       : 0.095
Stream size                              : 1.17 GiB (93%)
Writing library                          : x264 core 116 r2057kMod 0ba8a9c
Encoding settings                        : cabac=1 / ref=4 / deblock=1:0:0 / analyse=0x3:0x13 / me=umh / subme=7 / psy=1 / fade_compensate=0.00 / psy_rd=1.00:0.00 / mixed_ref=1 / me_range=16 / chroma_me=1 / trellis=1 / 8x8dct=1 / cqm=0 / deadzone=21,11 / fast_pskip=1 / chroma_qp_offset=-2 / threads=4 / sliced_threads=1 / slices=4 / nr=0 / decimate=1 / interlaced=0 / bluray_compat=0 / constrained_intra=0 / bframes=0 / weightp=2 / keyint=250 / keyint_min=25 / scenecut=40 / intra_refresh=0 / rc=abr / mbtree=0 / bitrate=2988 / ratetol=1.0 / qcomp=0.60 / qpmin=10 / qpmax=51 / qpstep=4 / ip_ratio=1.40 / aq=1:1.00
Audio
ID                                       : 1
Format                                   : MPEG Audio
Format version                           : Version 1
Format profile                           : Layer 3
Mode                                     : Joint stereo
Codec ID                                 : 55
Codec ID/Hint                            : MP3
Duration                                 : 1h 4mn
Bit rate mode                            : Constant
Bit rate                                 : 192 Kbps
Channel(s)                               : 2 channels
Sampling rate                            : 48.0 KHz
Compression mode                         : Lossy
Stream size                              : 88.2 MiB (7%)
Alignment                                : Aligned on interleaves
Interleave, duration                     : 33 ms (1.00 video frame)
Interleave, preload duration             : 504 ms
Title                                    : GREEN TEA VO

Скриншоты


[Профиль] [ЛС]
Показать сообщения:    
Ответить на тему

Текущее время: Сегодня 20:03

Часовой пояс: GMT



Вы не можете начинать темы
Вы не можете отвечать на сообщения
Вы не можете редактировать свои сообщения
Вы не можете удалять свои сообщения
Вы не можете голосовать в опросах
Вы не можете прикреплять файлы к сообщениям
Вы не можете скачивать файлы