Жалобы на работу трекера ! прошу сюда :)

История Канку / The Story of Kang Gu [02/02] (Хон Сон Чхан) [2014, драма, романтика, HDRip] [360p] VO GREEN TEA

Ответить на тему
 
Автор Сообщение

Klёпa ®

Стаж: 3 года 2 месяца

Сообщений: 906

Пост 23-Сен-2014 12:50

[Цитировать]

История Канку
Kang-goo iyagi / The Story of Kang Gu (Kang Koo's Story)

Год выпуска: 2014
Страна: Южная Корея
Жанр: драма, мелодрама
Продолжительность: 2 серии по 65 мин.-Озвучивание: Одноголосое (закадровое) Екатерина Юрьева
Сэмпл: https://yadi.sk/i/v86ixQ6NbcCJ9
-Режиссер: Хон Сон Чхан ( Hong Seong Chang / 홍성창)
В ролях:
Ли Дон Ук (Lee Dong Wook / 이동욱) - Кён Тэ
Пак Чжу Ми (Park Joo Mi / 박주미) - Мун Сук
Син Дон У (Sin Dong Woo / 신동우) - Кан Ку
Чжон Ха Ныль (Jeon Ha Neul / 전하늘)
и др.
-Описание:
Двухсерийная драма расскажет историю о парне по имени Гён Тхэ (Ли Дон Ук), которого все считают довольно хладнокровным и ни на что не годным. Внезапно у него умирает друг, который просит его позаботиться о сестре Мун Сук (Па Чу Ми) и племяннике Кан Ку. Для этого Гён Тхэ отправляется в портовый город Канку. Там он начинает заботиться о Кан Ку, который с опаской относится к незнакомцу Гён Тхэ, а также влюбляется в слабую здоровьем Мун.
-Доп. информация:
Релиз группы GREEN TEA
Перевод: фансаб-группа "MAНИЯ"
Работа со звуком: Екатерина Юрьева
Оформление постера: Дина Фаткулина-Качество: HDRip
Формат: AVI
Видео кодек: XviD
Аудио кодек: MP3
Видео: 624х352, ~1270 Кбит/с, 29.97 fps
Аудио: 48 kHz, 192 Кбит/c, 2 канала
!!! Альтернативная раздача: 720p (AVI, H264)

MediaInfo

Код:
General
Complete name                            : [GREEN TEA] Story.of.KangGu_E01.avi
Format                                   : AVI
Format/Info                              : Audio Video Interleave
File size                                : 677 MiB
Duration                                 : 1h 4mn
Overall bit rate                         : 1 475 Kbps
Movie name                               : История Канку / The Story of Kang Gu (2014)
Writing application                      : VirtualDubMod 1.5.10.2 (build 2542/release)
Writing library                          : VirtualDubMod build 2542/release
Video
ID                                       : 0
Format                                   : MPEG-4 Visual
Format profile                           : Advanced Simple@L5
Format settings, BVOP                    : 2
Format settings, QPel                    : No
Format settings, GMC                     : No warppoints
Format settings, Matrix                  : Default (MPEG)
Codec ID                                 : XVID
Codec ID/Hint                            : XviD
Duration                                 : 1h 4mn
Bit rate                                 : 1 271 Kbps
Width                                    : 624 pixels
Height                                   : 352 pixels
Display aspect ratio                     : 16:9
Frame rate                               : 29.970 fps
Color space                              : YUV
Chroma subsampling                       : 4:2:0
Bit depth                                : 8 bits
Scan type                                : Progressive
Compression mode                         : Lossy
Bits/(Pixel*Frame)                       : 0.193
Stream size                              : 584 MiB (86%)
Writing library                          : XviD 1.2.1 (UTC 2008-12-04)
Audio
ID                                       : 1
Format                                   : MPEG Audio
Format version                           : Version 1
Format profile                           : Layer 3
Mode                                     : Joint stereo
Codec ID                                 : 55
Codec ID/Hint                            : MP3
Duration                                 : 1h 4mn
Bit rate mode                            : Constant
Bit rate                                 : 192 Kbps
Channel(s)                               : 2 channels
Sampling rate                            : 48.0 KHz
Compression mode                         : Lossy
Stream size                              : 88.2 MiB (13%)
Alignment                                : Aligned on interleaves
Interleave, duration                     : 33 ms (1.00 video frame)
Interleave, preload duration             : 504 ms
Title                                    : GREEN TEA VO

Скриншоты


[Профиль] [ЛС]

Tainted-love

Стаж: 2 года 11 месяцев

Сообщений: 1180

Пост 24-Сен-2014 21:01 (спустя 1 день 8 часов)

[Цитировать]

Это означает, что в конце все умерли?
[Профиль] [ЛС]

PhoenixYuong

Стаж: 3 года 9 месяцев

Сообщений: 320

Откуда: Беларусь

Пост 12-Ноя-2014 18:51 (спустя 1 месяц 17 дней)

[Цитировать]

Прекрасная игра Ли Дон Ука!!! Я в восторге! Спасибо большое!!!!!!!))))))))

_________________
[Профиль] [ЛС]
Показать сообщения:    
Ответить на тему

Текущее время: Сегодня 16:02

Часовой пояс: GMT



Вы не можете начинать темы
Вы не можете отвечать на сообщения
Вы не можете редактировать свои сообщения
Вы не можете удалять свои сообщения
Вы не можете голосовать в опросах
Вы не можете прикреплять файлы к сообщениям
Вы не можете скачивать файлы