Жалобы на работу трекера ! прошу сюда :)

Перезагрузка / Reset [10/10] (Ким Ён Гюн) [2014, детектив, триллер, HDTVRip] [360p] VO GREEN TEA

Ответить на тему
 
Автор Сообщение

Klёпa ®

Стаж: 3 года 2 месяца

Сообщений: 906

Пост 23-Сен-2014 17:44

[Цитировать]

Перезагрузка
Reset / Crying Game


Год выпуска: 2014
Страна: Южная Корея
Жанр: детектив, триллер
Продолжительность: 10 серий по ~60 мин.
Серий: 1-10 (10)-Перевод: Одноголосый (закадровый) Катерина Александрова
Сэмпл: https://yadi.sk/i/PPWWzIGMbdAit
-Режиссер: Ким Ён Гюн (Kim Yong Kyun / 김용균)
В ролях:
Чхон Чжон Мён (Chun Jung Myung / 천정명) - Ча У Чжин
Ким Со Хён (Kim So Hyun / 김소현) - Чо Ын Би
Чхве Дже Ун (Choi Jae Woong / 최재웅) - Ким Дон Су
Син Ын Чжон (Shin Eun Jung / 신은정) - директор Хан
Пак Вон Сан (Park Won Sang / 박원상) - следователь
Сон Ха Юн (Song Ha Yoon / 송하윤) - Чхве Юн Хи
и др.
-Описание:
Дорама о преступлении, срок давности которого истечет через 10 дней. Кто-то отчаянно хочет скрыть это преступление, а кто-то также отчаянно хочет раскрыть правду.
Ча У Чжин (Чон Чжон Мён) работает прокурором с тех пор, как 15 лет назад вследствие преступления погибла его возлюбленная (Ким Со Хён). С тех пор он посвятил себя расследованию тяжких преступлений. Однажды во время поисков преступника в дело оказывается вовлечена старшеклассница Чо Ын Би (Ким Со Хён), как две капли воды похожая на его погибшую возлюбленную.
-Доп. информация:
Релиз группы GREEN TEA
Перевод: фансаб-группа "BEARS" (1-2 серии) и Виктория Широкова (с 3 серии)
Работа со звуком: Екатерина Юрьева
Оформление постера: Елена Горборукова-Качество: HDTVRip
Формат: AVI
Видео кодек: XviD
Аудио кодек: MP3
Видео: 624х352, ~1260 Кбит/с, 29.97 fps
Аудио: 48 kHz, 192 Кбит/c, 2 канала
!!! Альтернативная раздача: 720p (AVI, H264)
ОСТ к дораме Перезагрузка22.11.2014 - добавлена 10 серия (заключительная).

MediaInfo

Код:
General
Complete name                            : [GREEN TEA] Reset_E01.avi
Format                                   : AVI
Format/Info                              : Audio Video Interleave
File size                                : 613 MiB
Duration                                 : 58mn 34s
Overall bit rate                         : 1 463 Kbps
Movie name                               : Перезагрузка / Reset (2014)
Writing application                      : VirtualDubMod 1.5.10.2 (build 2542/release)
Writing library                          : VirtualDubMod build 2542/release
Video
ID                                       : 0
Format                                   : MPEG-4 Visual
Format profile                           : Advanced Simple@L5
Format settings, BVOP                    : 2
Format settings, QPel                    : No
Format settings, GMC                     : No warppoints
Format settings, Matrix                  : Default (MPEG)
Codec ID                                 : XVID
Codec ID/Hint                            : XviD
Duration                                 : 58mn 34s
Bit rate                                 : 1 259 Kbps
Width                                    : 624 pixels
Height                                   : 352 pixels
Display aspect ratio                     : 16:9
Frame rate                               : 29.970 fps
Color space                              : YUV
Chroma subsampling                       : 4:2:0
Bit depth                                : 8 bits
Scan type                                : Progressive
Compression mode                         : Lossy
Bits/(Pixel*Frame)                       : 0.191
Stream size                              : 528 MiB (86%)
Writing library                          : XviD 1.2.1 (UTC 2008-12-04)
Audio
ID                                       : 1
Format                                   : MPEG Audio
Format version                           : Version 1
Format profile                           : Layer 3
Mode                                     : Joint stereo
Codec ID                                 : 55
Codec ID/Hint                            : MP3
Duration                                 : 58mn 34s
Bit rate mode                            : Constant
Bit rate                                 : 192 Kbps
Channel(s)                               : 2 channels
Sampling rate                            : 48.0 KHz
Compression mode                         : Lossy
Stream size                              : 80.4 MiB (13%)
Alignment                                : Split accross interleaves
Interleave, duration                     : 33 ms (1.00 video frame)
Interleave, preload duration             : 500 ms
Title                                    : GREEN TEA VO

Скриншоты




Последний раз редактировалось: Klёпa (2014-11-21 23:44), всего редактировалось 9 раз(а)
[Профиль] [ЛС]

j_777

Стаж: 3 года 9 месяцев

Сообщений: 302

Пост 24-Сен-2014 11:18 (спустя 17 часов)

[Цитировать]

Спасибки!!!
[Профиль] [ЛС]

Klёпa ®

Стаж: 3 года 2 месяца

Сообщений: 906

Пост 27-Сен-2014 23:11 (спустя 3 дня)

[Цитировать]

Добавлена 4 серия!
[Профиль] [ЛС]

Klёпa ®

Стаж: 3 года 2 месяца

Сообщений: 906

Пост 05-Окт-2014 17:21 (спустя 7 дней)

[Цитировать]

Добавлена 5 серия!
[Профиль] [ЛС]

Klёпa ®

Стаж: 3 года 2 месяца

Сообщений: 906

Пост 12-Окт-2014 11:15 (спустя 6 дней)

[Цитировать]

Добавлена 6 серия!
[Профиль] [ЛС]

Klёпa ®

Стаж: 3 года 2 месяца

Сообщений: 906

Пост 31-Окт-2014 21:31 (спустя 19 дней)

[Цитировать]

Добавлена 7 серия!
[Профиль] [ЛС]

j_777

Стаж: 3 года 9 месяцев

Сообщений: 302

Пост 01-Ноя-2014 07:39 (спустя 10 часов)

[Цитировать]

Урааааааааааааааааааааа, новая серия!!!!!!!!!!!!! Спасибо большое!!!!!!!!!!!!!!!!!!!
[Профиль] [ЛС]

serafimama

Стаж: 2 года 6 месяцев

Сообщений: 5

Пост 01-Ноя-2014 11:23 (спустя 3 часа)

[Цитировать]

Сериал очень интересный и динамичный. Каждая серия заканчивается на самом интересном месте и начинается томительное ожидание - чем все кончится( хотя понятно, что главного героя не убьют, впереди еще ....).Но вот кто во всем виноват, не понятно ( мне уж точно).Спасибо за перевод. С нетерпением жду новых серий.
[Профиль] [ЛС]

Klёпa ®

Стаж: 3 года 2 месяца

Сообщений: 906

Пост 07-Ноя-2014 16:06 (спустя 6 дней)

[Цитировать]

Добавлена 8 серия!
[Профиль] [ЛС]

Klёпa ®

Стаж: 3 года 2 месяца

Сообщений: 906

Пост 20-Ноя-2014 19:15 (спустя 13 дней)

[Цитировать]

Добавлена 9 серия!
[Профиль] [ЛС]

Tainted-love

Стаж: 2 года 11 месяцев

Сообщений: 1180

Пост 20-Ноя-2014 20:44 (спустя 1 час 29 минут)

[Цитировать]

Спасибо... еще одна серия и можно качать... вы молодцы. А сериал очень страшный... после просмотра кошмары сниться не будут?
[Профиль] [ЛС]

Klёпa ®

Стаж: 3 года 2 месяца

Сообщений: 906

Пост 21-Ноя-2014 23:47 (спустя 1 день 3 часа)

[Цитировать]

Добавлена заключительная 10 серия!
Проект завершён!! Приятного просмотра! bo
[Профиль] [ЛС]

j_777

Стаж: 3 года 9 месяцев

Сообщений: 302

Пост 22-Ноя-2014 08:26 (спустя 8 часов)

[Цитировать]

Спасибо огромное! С завершением проекта !!!
[Профиль] [ЛС]
Показать сообщения:    
Ответить на тему

Текущее время: Сегодня 16:34

Часовой пояс: GMT



Вы не можете начинать темы
Вы не можете отвечать на сообщения
Вы не можете редактировать свои сообщения
Вы не можете удалять свои сообщения
Вы не можете голосовать в опросах
Вы не можете прикреплять файлы к сообщениям
Вы не можете скачивать файлы